Зов Каролины / Carolina's Calling (2021) WEB-DLRip [H.264/1080p-LQ] [MVO] [AD]

Ответить на тему
 
Автор Сообщение

admin ®

Пол: Не указан

Стаж: 4 месяца 27 дня

Сообщений: 10110

Создавать темы 30-Янв-2024 15:05

[Цитировать]

Зов Каролины / Carolina's Calling (2021) WEB-DLRip [H.264/1080p-LQ]- Производство: США / Rykeraddyluv, 333 Productions
Жанр: приключения, комедия, фантастика
Режиссер: Michael Saquella
Актеры: Антонио Сабато мл., Стейси Дэш, Джейкоб Хопкинс, Savanah Moss, Шон Диллинхэм, Маршалл Фокс, Alex Parisi, Jay Garcia, Drew O'Kane, Michael Saquella
Описание:
Мартин, одарённый, но невезучий инженер, создаёт неисчерпаемый источник энергии, но при его активации происходит выброс, из-за которого Боб, чудаковатый инопланетянин, пролетавший мимо на своём космическом корабле, терпит крушение. Боб с помощью телепатии посылает сообщения к месту выброса, и Мартин внезапно решает отправиться со своей дочкой Джесс в Южную Каролину, именно туда, где разбился корабль Боба.
Дата мировой премьеры: 2 ноября 2021
Продолжительность: 01:32:47
Качество видео: WEB-DLRip
Перевод: Многоголосый профессиональный (Синема УС)
Субтитры: Отсутствуют
Реклама: Присутствует баннер.
Видео: AVC/H.264, 1916x1008, ~6911 Kbps
Аудио: AC3, 2 ch, 384 Kbps

MediaInfo:

Общее
Полное имя : D:\NNM\Зов Каролины\Carolinas.Calling.2021.WEB-DLRip.1080p-LQ.mkv
Формат : Matroska
Версия формата : Version 2
Размер файла : 4,82 Гбайт
Продолжительность : 1 ч. 32 м.
Режим общего битрейта : Переменный
Общий поток : 7 443 Кбит/сек
Программа кодирования : libmatroska 1.4.1
Библиотека кодирования : SolveigMM Matroska Muxer Version 1.0.1904.23
Видео
Идентификатор : 1
Формат : AVC
Формат/Информация : Advanced Video Codec
Профиль формата : High@L4.1
Настройки формата : CABAC / 4 Ref Frames
Параметр CABAC формата : Да
Параметр RefFrames формата : 4 кадра
Идентификатор кодека : V_MPEG4/ISO/AVC
Продолжительность : 1 ч. 32 м.
Вид битрейта : Переменный
Битрейт : 6 911 Кбит/сек
Номинальный битрейт : 8 000 Кбит/сек
Максимальный битрейт : 8 000 Кбит/сек
Ширина : 1 916 пикселей
Высота : 1 008 пикселей
Соотношение сторон : 1,901
Режим частоты кадров : Постоянный
Частота кадров : 23,976 (24000/1001) кадра/сек
Стандарт вещания : Component
Цветовое пространство : YUV
Субдискретизация насыщенности : 4:2:0
Битовая глубина : 8 бит
Тип развёртки : Прогрессивная
Бит/(Пиксели*Кадры) : 0.149
Размер потока : 4,48 Гбайт (93%)
Default : Нет
Forced : Нет
Цветовой диапазон : Limited
Основные цвета : BT.709
Характеристики трансфера : BT.709
Коэффициенты матрицы : BT.709
Аудио
Идентификатор : 2
Формат : AC-3
Формат/Информация : Audio Coding 3
Коммерческое название : Dolby Digital
Идентификатор кодека : A_AC3
Продолжительность : 1 ч. 32 м.
Вид битрейта : Постоянный
Битрейт : 384 Кбит/сек
Каналы : 2 канала
Channel layout : L R
Частота : 48,0 КГц
Частота кадров : 31,250 кадров/сек (1536 SPF)
Метод сжатия : С потерями
Размер потока : 255 Мбайт (5%)
Язык : Russian
Service kind : Complete Main
Default : Нет
Forced : Нет
Скриншоты: Все одноименные релизы в КлубеВремя раздачи: 24/7 (до 10-ти скачавших)
[Профиль] [ЛС]
Показать сообщения:    
Ответить на тему

Текущее время: 25-Фев 21:42

Часовой пояс: UTC ± 0



Вы не можете начинать темы
Вы не можете отвечать на сообщения
Вы не можете редактировать свои сообщения
Вы не можете удалять свои сообщения
Вы не можете голосовать в опросах
Вы не можете прикреплять файлы к сообщениям
Вы не можете скачивать файлы

[  Время выполнения: 0,029 сек  |  MySQL: 0,002 сек (8%) · 3 запр.  |  GZIP выкл  |  Память: 422,29 KB / 1,72 MB / 1,32 MB  |  Лимит: 17 15 14  ]