King’s Man: Начало / The King's Man (2021) WEB-DLRip [H.264/1080p-LQ] [Line, AD]

Ответить на тему
 
Автор Сообщение

admin ®

Пол: Не указан

Стаж: 4 месяца 27 дня

Сообщений: 10110

Создавать темы 30-Янв-2024 15:05

[Цитировать]

King’s Man: Начало / The King's Man (2021) WEB-DLRip [H.264/1080p-LQ]- Производство: Великобритания, США, 20th Century Studios, Marv Films, Marv Studios
Жанр: боевик, триллер, комедия, криминал, приключения
Режиссер: Мэттью Вон
Продюсер: Адам Болинг, Рэйф Файнс, Дэйв Гиббонс
Актеры: Харрис Дикинсон, Даниэль Брюль, Рэйф Файнс, Аарон Тейлор-Джонсон, Рис Иванс, Джемма Артертон, Мэттью Гуд, Том Холландер, Бранка Катич, Стэнли Туччи
Описание:
Kingsman — организация супершпионов, действующая на благо человечества вдали от любопытных глаз. И один из первых и самых талантливых оперативников в истории организации — Конрад, молодой и наглый сын герцога Оксфордского. Как и многие его друзья, он мечтал служить на благо Англии, но в итоге оказался втянут в тайный мир шпионов и убийц.
Возраст: 18+ (зрителям, достигшим 18 лет. запрещено для детей)
Рейтинг MPAA: R (лицам до 17 лет обязательно присутствие взрослого)
Дата мировой премьеры: 22 декабря 2021
Дата российской премьеры: 13 января 2022, «Дисней Студиос»
Продолжительность: 02:10:32
Качество видео: WEB-DLRip
Перевод: Дублированный (Line)
Субтитры: Отсутствуют
Реклама: Присутствуют баннер
Видео: AVC/H.264, 1920x802, 3587 Kbps, 23.976 fps
Аудио: АС3, 2 ch, 48 kHz, 384 Kbps | Русский

MediaInfo:

Общее
Уникальный идентификатор : 179861818195815414019062016695822063232 (0x8750204B7763E4A3A9B09F696ECA1680)
Полное имя : D:\KingsMan.Начало.2021.WEB-DLRip.[1080p].Soft-Torrent - торрент игры программы фильмы книги скачать.mkv
Формат : Matroska
Версия формата : Version 4
Размер файла : 3,62 Гбайт
Продолжительность : 2 ч. 10 м.
Общий поток : 3973 Кбит/сек
Название фильма : KingsMan.Начало.2021.WEB-DLRip.[1080p].Soft-Torrent - торрент игры программы фильмы книги скачать
Дата кодирования : UTC 2022-02-09 13:11:10
Программа кодирования : mkvmerge v8.3.0 ('Over the Horizon') 64bit
Библиотека кодирования : libebml v1.3.1 + libmatroska v1.4.2
Видео
Идентификатор : 1
Формат : AVC
Формат/Информация : Advanced Video Codec
Профиль формата : High@L4.1
Настройки формата : CABAC / 4 Ref Frames
Параметр CABAC формата : Да
Параметр RefFrames формата : 4 кадра
Идентификатор кодека : V_MPEG4/ISO/AVC
Продолжительность : 2 ч. 10 м.
Битрейт : 3587 Кбит/сек
Ширина : 1920 пикселей
Высота : 802 пикселя
Соотношение сторон : 2,40:1
Соотношение сторон в оригинале : 2,40:1
Режим частоты кадров : Постоянный
Частота кадров : 23,976 кадра/сек
Цветовое пространство : YUV
Субдискретизация насыщенности : 4:2:0
Битовая глубина : 8 бит
Тип развёртки : Прогрессивная
Бит/(Пиксели*Кадры) : 0.097
Размер потока : 3,27 Гбайт (90%)
Язык : English
Default : Да
Forced : Нет
Аудио
Идентификатор : 2
Формат : AC-3
Формат/Информация : Audio Coding 3
Коммерческое название : Dolby Digital
Идентификатор кодека : A_AC3
Продолжительность : 2 ч. 10 м.
Вид битрейта : Постоянный
Битрейт : 384 Кбит/сек
Каналы : 2 канала
ChannelLayout : L R
Частота : 48,0 КГц
Частота кадров : 31,250 кадров/сек (1536 SPF)
Битовая глубина : 16 бит
Метод сжатия : С потерями
Задержка видео : 11 мс.
Размер потока : 359 Мбайт (10%)
Язык : Russian
ServiceKind/String : Complete Main
Default : Да
Forced : Нет
Скриншоты:
Все одноименные релизы в КлубеВремя раздачи: 24/7 (минимум до появления первых 3-5 скачавших)
[Профиль] [ЛС]
Показать сообщения:    
Ответить на тему

Текущее время: 25-Фев 19:08

Часовой пояс: UTC ± 0



Вы не можете начинать темы
Вы не можете отвечать на сообщения
Вы не можете редактировать свои сообщения
Вы не можете удалять свои сообщения
Вы не можете голосовать в опросах
Вы не можете прикреплять файлы к сообщениям
Вы не можете скачивать файлы

[  Время выполнения: 0,034 сек  |  MySQL: 0,003 сек (9%) · 3 запр.  |  GZIP выкл  |  Память: 422,29 KB / 1,74 MB / 1,34 MB  |  Лимит: 15 17 18  ]