Запах сундука / Sandik Kokusu (2023-2024) WEB-DLRip [H.264/720p-LQ] (сезон 1, серии 1-7 из ??) AlisaDirilis (обновляемая)

Ответить на тему
 
Автор Сообщение

admin ®

Пол: Не указан

Стаж: 4 месяца 27 дня

Сообщений: 10110

Создавать темы 01-Фев-2024 15:04

[Цитировать]

Запах сундука / Sandık Kokusu (2023-2024) WEB-DLRip [H.264/720p-LQ]
(сезон 1, серии 1-7 из ??)
- Производство: Турция / O3 Medya
Жанр: драма
Режиссер: Незакет Джошкун
Актеры: Озге Озпиринчджи, Метин Акдюльгер, Демет Эвгар, Неджип Мемили, Седа Тюркмен, Левент Джан, Мерич Арал и др.
Описание:
Это обнадеживающая история семьи, которая началась с Аданы и переросла в Стамбул, с впечатляющей атмосферой.
Релиз от: Ay Oasis
Продолжительность: ~02:00:00
Качество видео: WEB-DLRip
Перевод: Двуголосый любительский (AlisaDirilis)
Язык озвучки: Русский
Субтитры: отсутствуют
Видео: AVC/H.264, 1920x1080 (16:9), ~1760 kbps
Аудио: AAC, 2 ch, 132 kbps

MediaInfo:

General
Unique ID : 324672260729745042172019317042306485774 (0xF4419A57FD9ED0E7A1EB5D4D933A0E0E)
Complete name : I:\Sandik Kokusu.s01.WEB-DLRip1080p.AlisaDirilis\Sandik Kokusu.s01.e01.WEB-DLRip1080p.mkv
Format : Matroska
Format version : Version 4
File size : 1.59 GiB
Duration : 2 h 0 min
Overall bit rate : 1 895 kb/s
Encoded date : UTC 2023-12-21 10:36:48
Writing application : mkvmerge v56.1.0 ('My Friend') 64-bit
Writing library : libebml v1.4.2 + libmatroska v1.6.4
Video
ID : 1
Format : AVC
Format/Info : Advanced Video Codec
Format profile : High@L4
Format settings : CABAC / 3 Ref Frames
Format settings, CABAC : Yes
Format settings, Reference fra : 3 frames
Codec ID : V_MPEG4/ISO/AVC
Duration : 2 h 0 min
Bit rate : 1 762 kb/s
Width : 1 920 pixels
Height : 1 080 pixels
Display aspect ratio : 16:9
Frame rate mode : Constant
Frame rate : 25.000 FPS
Color space : YUV
Chroma subsampling : 4:2:0
Bit depth : 8 bits
Scan type : Progressive
Bits/(Pixel*Frame) : 0.034
Stream size : 1.48 GiB (93%)
Writing library : x264 core 155 r2901 7d0ff22
Default : Yes
Forced : No
Color range : Limited
Color primaries : BT.709
Transfer characteristics : BT.709
Matrix coefficients : BT.709
Audio
ID : 2
Format : AAC LC
Format/Info : Advanced Audio Codec Low Complexity
Codec ID : A_AAC-2
Duration : 2 h 0 min
Bit rate : 132 kb/s
Channel(s) : 2 channels
Channel layout : L R
Sampling rate : 48.0 kHz
Frame rate : 46.875 FPS (1024 SPF)
Compression mode : Lossy
Stream size : 113 MiB (7%)
Default : Yes
Forced : No
Скриншоты:
Все одноименные релизы в КлубеВремя раздачи: с 11:00 до 3:00
[Профиль] [ЛС]
Показать сообщения:    
Ответить на тему

Текущее время: 25-Фев 18:05

Часовой пояс: UTC ± 0



Вы не можете начинать темы
Вы не можете отвечать на сообщения
Вы не можете редактировать свои сообщения
Вы не можете удалять свои сообщения
Вы не можете голосовать в опросах
Вы не можете прикреплять файлы к сообщениям
Вы не можете скачивать файлы

[  Время выполнения: 0,034 сек  |  MySQL: 0,007 сек (19%) · 5 запр.  |  GZIP выкл  |  Память: 422,51 KB / 1,71 MB / 1,32 MB  |  Лимит: 11 11 10  ]