Шкатулка дьявола: Пробуждение зла / The Jack in the Box: Awakening (2022) BDRip [H.264/1080p-LQ] [MVO] [AD]

Ответить на тему
 
Автор Сообщение

admin ®

Пол: Не указан

Стаж: 6 месяца 22 дня

Сообщений: 11520

Создавать темы 30-Янв-2024 15:02

[Цитировать]

Шкатулка дьявола: Пробуждение зла / The Jack in the Box: Awakening (2022) BDRip [H.264/1080p-LQ]- Производство: Великобритания / Fowler Media
Жанр: ужасы
Режиссер: Лоуренс Фаулер
Актеры: Мэтт МакКлюр, Джеймс Суонтон, Молли Хиндл, Николя Райт, Михаэла Лонгден, Джейсон Фэррис, Виктор Меллорс, Эрина Машате, Николас Энскомб, Мелвин Роулинсон
Описание:
Тяжело больная женщина открывает старинную шкатулку и высвобождает демона. Женщина заключает с ним договор: в обмен на своё исцеление она поможет ему заполучить шесть невинных жертв.
Возраст: 18+ (зрителям, достигшим 18 лет. запрещено для детей)
Дата мировой премьеры: 3 января 2022
Дата премьеры в России: 24 февраля 2022

Продолжительность: 01:31:46
Качество видео: BDRip
Перевод: Многоголосый профессиональный (Синема УС)
Субтитры: Отсутствуют
Реклама: Присутствует баннер.
Видео: AVC/H.264, 1920x816, ~12,8 Mbps
Аудио: AC3, 2 ch, 384 Kbps

MediaInfo:

Общее
Полное имя : D:\NNM\Шкатулка дьявола\The.Jack.in.the.Box.2022.BDRip.1080p-LQ.mkv
Формат : Matroska
Версия формата : Version 2
Размер файла : 8,64 Гбайт
Продолжительность : 1 ч. 31 м.
Режим общего битрейта : Постоянный
Общий поток : 13,5 Мбит/сек
Программа кодирования : libmatroska 1.4.1
Библиотека кодирования : SolveigMM Matroska Muxer Version 1.0.1904.23
Видео
Идентификатор : 1
Формат : AVC
Формат/Информация : Advanced Video Codec
Профиль формата : High@L4.1
Настройки формата : CABAC / 4 Ref Frames
Параметр CABAC формата : Да
Параметр RefFrames формата : 4 кадра
Идентификатор кодека : V_MPEG4/ISO/AVC
Продолжительность : 1 ч. 31 м.
Вид битрейта : Постоянный
Битрейт : 12,8 Мбит/сек
Номинальный битрейт : 15,0 Мбит/сек
Ширина : 1 920 пикселей
Высота : 816 пикселей
Соотношение сторон : 2,35:1
Режим частоты кадров : Постоянный
Частота кадров : 23,976 (24000/1001) кадра/сек
Стандарт вещания : Component
Цветовое пространство : YUV
Субдискретизация насыщенности : 4:2:0
Битовая глубина : 8 бит
Тип развёртки : Прогрессивная
Бит/(Пиксели*Кадры) : 0.342
Размер потока : 8,22 Гбайт (95%)
Default : Нет
Forced : Нет
Цветовой диапазон : Limited
Основные цвета : BT.709
Характеристики трансфера : BT.709
Коэффициенты матрицы : BT.709
Аудио
Идентификатор : 2
Формат : AC-3
Формат/Информация : Audio Coding 3
Коммерческое название : Dolby Digital
Идентификатор кодека : A_AC3
Продолжительность : 1 ч. 31 м.
Вид битрейта : Постоянный
Битрейт : 384 Кбит/сек
Каналы : 2 канала
Channel layout : L R
Частота : 48,0 КГц
Частота кадров : 31,250 кадров/сек (1536 SPF)
Метод сжатия : С потерями
Размер потока : 252 Мбайт (3%)
Язык : Russian
Service kind : Complete Main
Default : Нет
Forced : Нет
Скриншоты: Все одноименные релизы в КлубеВремя раздачи: 24/7 (до 10-ти скачавших)
[Профиль] [ЛС]
Показать сообщения:    
Ответить на тему

Текущее время: 20-Апр 20:35

Часовой пояс: UTC ± 0



Вы не можете начинать темы
Вы не можете отвечать на сообщения
Вы не можете редактировать свои сообщения
Вы не можете удалять свои сообщения
Вы не можете голосовать в опросах
Вы не можете прикреплять файлы к сообщениям
Вы не можете скачивать файлы

[  Время выполнения: 0,039 сек  |  MySQL: 0,004 сек (10%) · 5 запр.  |  GZIP выкл  |  Память: 422,29 KB / 1,73 MB / 1,34 MB  |  Лимит: 7 7 6  ]