Беренштейн / Berenshtein (2021) WEB-DLRip [H.264/1080p-LQ] [AD]

Ответить на тему
 
Автор Сообщение

admin ®

Пол: Не указан

Стаж: 6 месяца 22 дня

Сообщений: 11520

Создавать темы 30-Янв-2024 15:02

[Цитировать]

Беренштейн / Berenshtein (2021) WEB-DLRip [H.264/1080p-LQ]- Производство: Израиль / Metaphor
Жанр: Военный, биография, история, драма
Режиссер: Роман Шумунов
Актеры: Леонид Беренштейн, Ярослав Кучеренко, Anton Karlinsky, Lillia Ostapovich, Виктория Левченко, Дмитрий Сарансков, Ygor Surkov, Денис Шевченко, Ринат Хайрулин, Ivan Podgorniy
Описание:
История командира партизанского отряда Леонида Беренштейна, который вспоминает события Второй мировой войны — как им удалось обнаружить немецкую секретную базу, на которой разрабатывали «оружие возмездия», как ему приходилось казнить своих товарищей, как он воочию столкнулся с Холокостом и помог пленным евреям бежать. Тяжелый военный опыт разрушил его личность, забрал любовь, но не лишил человечности.
Дата мировой премьеры: 7 апреля 2021
Продолжительность: 01:54:32
Качество видео: WEB-DLRip
Перевод: Не требуется (Русский)
Субтитры: Отсутствуют
Видео: AVC/H.264, 1920x804, ~7597 Kbps
Аудио: AC3, 2 ch, 384 Kbps

MediaInfo:

Общее
Полное имя : D:\NNM\Беренштейн\Berenshtein.2021.WEB-DLRip.1080p-LQ.mkv
Формат : Matroska
Версия формата : Version 2
Размер файла : 6,51 Гбайт
Продолжительность : 1 ч. 54 м.
Режим общего битрейта : Постоянный
Общий поток : 8 143 Кбит/сек
Программа кодирования : libmatroska 1.4.1
Библиотека кодирования : SolveigMM Matroska Muxer Version 1.0.1904.23
Видео
Идентификатор : 1
Формат : AVC
Формат/Информация : Advanced Video Codec
Профиль формата : High@L4.1
Настройки формата : CABAC / 4 Ref Frames
Параметр CABAC формата : Да
Параметр RefFrames формата : 4 кадра
Идентификатор кодека : V_MPEG4/ISO/AVC
Продолжительность : 1 ч. 54 м.
Вид битрейта : Постоянный
Битрейт : 7 597 Кбит/сек
Номинальный битрейт : 9 000 Кбит/сек
Ширина : 1 920 пикселей
Высота : 804 пикселя
Соотношение сторон : 2,40:1
Режим частоты кадров : Постоянный
Частота кадров : 23,976 (24000/1001) кадра/сек
Стандарт вещания : Component
Цветовое пространство : YUV
Субдискретизация насыщенности : 4:2:0
Битовая глубина : 8 бит
Тип развёртки : Прогрессивная
Бит/(Пиксели*Кадры) : 0.205
Размер потока : 6,08 Гбайт (93%)
Default : Нет
Forced : Нет
Цветовой диапазон : Limited
Основные цвета : BT.709
Характеристики трансфера : BT.709
Коэффициенты матрицы : BT.709
Аудио
Идентификатор : 2
Формат : AC-3
Формат/Информация : Audio Coding 3
Коммерческое название : Dolby Digital
Идентификатор кодека : A_AC3
Продолжительность : 1 ч. 54 м.
Вид битрейта : Постоянный
Битрейт : 384 Кбит/сек
Каналы : 2 канала
Channel layout : L R
Частота : 48,0 КГц
Частота кадров : 31,250 кадров/сек (1536 SPF)
Метод сжатия : С потерями
Размер потока : 315 Мбайт (5%)
Язык : Russian
Service kind : Complete Main
Default : Нет
Forced : Нет
Скриншоты: Все одноименные релизы в КлубеВремя раздачи: 24/7 (до 10-ти скачавших)
[Профиль] [ЛС]
Показать сообщения:    
Ответить на тему

Текущее время: 20-Апр 19:39

Часовой пояс: UTC ± 0



Вы не можете начинать темы
Вы не можете отвечать на сообщения
Вы не можете редактировать свои сообщения
Вы не можете удалять свои сообщения
Вы не можете голосовать в опросах
Вы не можете прикреплять файлы к сообщениям
Вы не можете скачивать файлы

[  Время выполнения: 0,036 сек  |  MySQL: 0,004 сек (11%) · 3 запр.  |  GZIP выкл  |  Память: 422,29 KB / 1,74 MB / 1,34 MB  |  Лимит: 6 6 7  ]