Кудрявая тихушница / Crush kong curly (2021) WEB-DLRip [H.264/720p-LQ] [MVO] [AD]

Ответить на тему
 
Автор Сообщение

admin ®

Пол: Не указан

Стаж: 4 месяца 23 дня

Сообщений: 10110

Создавать темы 30-Янв-2024 15:01

[Цитировать]

Кудрявая тихушница / Crush kong curly (2021) WEB-DLRip [H.264/720p-LQ]- Производство: Филиппины / Viva Films, Five 2 Seven Entertainment Production
Жанр: комедия
Режиссер: Дж.Б. Сан Педро
Актеры: Эй Джей Равал, Уилберт Росс, Джина Пареньо, Мауи Тейлор, Джао Мапа, Лорен Мариньяс, Мадлен Рэд, Джин Падилья, Чад Кинис, Эндрю Мулах, Саб Аггабао, Габ Лагман, Гвен Гарси
Описание:
Когда кудрявая эротическая вебкамщица Элль встречает архитектора Питера, она верит, что готова снова полюбить. Как долго она сможет скрывать от него свою секретную работу?
Дата мировой премьеры: 17 декабря 2021
Продолжительность: 01:40:50
Качество видео: WEB-DLRip
Перевод: Многоголосый профессиональный (Синема УС)
Субтитры: Отсутствуют
Реклама: Присутствует баннер.
Видео: AVC/H.264, 1280x692, ~4314 Kbps
Аудио: AC-3, 2 ch, 256 Kbps

MediaInfo:

Общее
Полное имя : D:\NNM\Кудрявая тихушница\Crush.kong.curly.2021.WEB-DLRip.720p-LQ.mkv
Формат : Matroska
Версия формата : Version 2
Размер файла : 3,28 Гбайт
Продолжительность : 1 ч. 40 м.
Режим общего битрейта : Постоянный
Общий поток : 4 663 Кбит/сек
Программа кодирования : libmatroska 1.4.1
Библиотека кодирования : SolveigMM Matroska Muxer Version 1.0.1904.23
Видео
Идентификатор : 1
Формат : AVC
Формат/Информация : Advanced Video Codec
Профиль формата : High@L4.1
Настройки формата : CABAC / 4 Ref Frames
Параметр CABAC формата : Да
Параметр RefFrames формата : 4 кадра
Идентификатор кодека : V_MPEG4/ISO/AVC
Продолжительность : 1 ч. 40 м.
Вид битрейта : Постоянный
Битрейт : 4 314 Кбит/сек
Номинальный битрейт : 5 000 Кбит/сек
Ширина : 1 280 пикселей
Высота : 692 пикселя
Соотношение сторон : 1,85:1
Режим частоты кадров : Постоянный
Частота кадров : 23,976 (24000/1001) кадра/сек
Стандарт вещания : Component
Цветовое пространство : YUV
Субдискретизация насыщенности : 4:2:0
Битовая глубина : 8 бит
Тип развёртки : Прогрессивная
Бит/(Пиксели*Кадры) : 0.203
Размер потока : 3,04 Гбайт (93%)
Default : Нет
Forced : Нет
Цветовой диапазон : Limited
Основные цвета : BT.709
Характеристики трансфера : BT.709
Коэффициенты матрицы : BT.709
Аудио
Идентификатор : 2
Формат : AC-3
Формат/Информация : Audio Coding 3
Коммерческое название : Dolby Digital
Идентификатор кодека : A_AC3
Продолжительность : 1 ч. 40 м.
Вид битрейта : Постоянный
Битрейт : 256 Кбит/сек
Каналы : 2 канала
Channel layout : L R
Частота : 48,0 КГц
Частота кадров : 31,250 кадров/сек (1536 SPF)
Метод сжатия : С потерями
Размер потока : 185 Мбайт (5%)
Язык : Russian
Service kind : Complete Main
Default : Нет
Forced : Нет
Скриншоты: Все одноименные релизы в КлубеВремя раздачи: 24/7 (до 10-ти скачавших)
[Профиль] [ЛС]
Показать сообщения:    
Ответить на тему

Текущее время: 22-Фев 01:40

Часовой пояс: UTC ± 0



Вы не можете начинать темы
Вы не можете отвечать на сообщения
Вы не можете редактировать свои сообщения
Вы не можете удалять свои сообщения
Вы не можете голосовать в опросах
Вы не можете прикреплять файлы к сообщениям
Вы не можете скачивать файлы

[  Время выполнения: 0,035 сек  |  MySQL: 0,008 сек (23%) · 5 запр.  |  GZIP выкл  |  Память: 421,85 KB / 1,72 MB / 1,32 MB  |  Лимит: 13 17 19  ]