Суперзвезда / France (2021) WEB-DLRip [Line, AD]

Ответить на тему
 
Автор Сообщение

admin ®

Пол: Не указан

Стаж: 5 месяца

Сообщений: 10110

Создавать темы 30-Янв-2024 15:00

[Цитировать]

Суперзвезда / France (2021) WEB-DLRip«Одна ошибка, и ты - не охотница, ты - добыча»- Производство: Франция, Германия, Италия, Бельгия / 3B Productions
Жанр: драма, комедия
Режиссер: Брюно Дюмон
Актеры: Леа Сейду, Бланш Гарден, Бенжамин Биолэй, Эмануэле Ариоли, Юлиана Кёлер, Гаэтан Амиэль, Джавад Земмар, Марк Беттинелли, Люсиль Рош, Нура Бенбалули
Описание:
Смелая и циничная тележурналистка Франс де Мер лезет во все горячие точки планеты, хамит президенту на пресс-конференциях и блистает на светских вечеринках. Внезапно одна ошибка меняет её бурную жизнь: она больше не хочет быть в центре внимания и тяготится славой. Но когда акула шоу-бизнеса прекращает охоту, она сама становится лакомой добычей. Став королевой дизлайков, ей нужно найти силы, чтобы вернуть свою прежнюю жизнь.
Возраст: 16+ (зрителям, достигшим 16 лет)
Дата мировой премьеры: 15 июля 2021
Дата российской премьеры: 7 октября 2021, «Экспонента»
Продолжительность: 02:08:59
Качество видео: WEB-DLRip
Перевод: Дублированный (Line)
Субтитры: Отсутствуют
Реклама: Присутствует аудио и видео реклама + баннер.
Видео: XviD, 720x384, ~1320 Kbps
Аудио: AC3, 2 ch, 192 Kbps

MediaInfo

Общее
Полное имя : E:\Downloads\Superzvezda.2021.WEB-DLRip.avi
Формат : AVI
Формат/Информация : Audio Video Interleave
Размер файла : 1,37 Гбайт
Продолжительность : 2 ч. 8 м.
Общий поток : 1521 Кбит/сек
Программа кодирования : VirtualDubMod 1.5.10.3 | www.virtualdub-fr.org || (build 2550/release)
Библиотека кодирования : VirtualDubMod build 2550/release
Видео
Идентификатор : 0
Формат : MPEG-4 Visual
Профиль формата : Advanced Simple@L5
Параметр BVOP формата : 2
Параметр QPel формата : Нет
Параметр GMC формата : Без точки перехода
Параметр матрицы формата : Выборочная
Идентификатор кодека : XVID
Идентификатор кодека/Подсказка : XviD
Продолжительность : 2 ч. 8 м.
Битрейт : 1320 Кбит/сек
Ширина : 720 пикселей
Высота : 384 пикселя
Соотношение сторон : 1,85:1
Частота кадров : 25,000 кадров/сек
Цветовое пространство : YUV
Субдискретизация насыщенности : 4:2:0
Битовая глубина : 8 бит
Тип развёртки : Прогрессивная
Метод сжатия : С потерями
Бит/(Пиксели*Кадры) : 0.191
Размер потока : 1,19 Гбайт (87%)
Библиотека кодирования : XviD 1.2.1 (UTC 2008-12-04)
Аудио
Идентификатор : 1
Формат : AC-3
Формат/Информация : Audio Coding 3
Расширение режима : CM (complete main)
Параметр Endianness формата : Big
Идентификатор кодека : 2000
Продолжительность : 2 ч. 8 м.
Вид битрейта : Постоянный
Битрейт : 192 Кбит/сек
Каналы : 2 канала
Расположение каналов : Front: L R
Частота : 48,0 КГц
Метод сжатия : С потерями
Размер потока : 177 Мбайт (13%)
Выравнивание : Разделение по промежуткам
Продолжительность промежутка : 40 мс. (1,00 видеокадр)
Время предзагрузки промежутка : 500 мс.
Скриншоты:
Все одноименные релизы в КлубеВремя раздачи: с 10:00 до 22:00 (минимум до появления первых 3-5 скачавших)
[Профиль] [ЛС]
Показать сообщения:    
Ответить на тему

Текущее время: 28-Фев 23:40

Часовой пояс: UTC ± 0



Вы не можете начинать темы
Вы не можете отвечать на сообщения
Вы не можете редактировать свои сообщения
Вы не можете удалять свои сообщения
Вы не можете голосовать в опросах
Вы не можете прикреплять файлы к сообщениям
Вы не можете скачивать файлы

[  Время выполнения: 0,032 сек  |  MySQL: 0,007 сек (23%) · 5 запр.  |  GZIP выкл  |  Память: 422,29 KB / 1,71 MB / 1,31 MB  |  Лимит: 8 9 9  ]