Герой / Ghahreman (2021) WEB-DLRip [MVO, AD]

Ответить на тему
 
Автор Сообщение

admin ®

Пол: Не указан

Стаж: 5 месяца 1 день

Сообщений: 10110

Создавать темы 30-Янв-2024 14:59

[Цитировать]

Герой / Ghahreman (2021) WEB-DLRip- Производство: Франция, Иран / arte France Cinema, Asghar Farhadi Productions
Жанр: триллер, драма
Режиссер: Асгар Фархади
Актеры: Амир Джадиди, Эхсан Гударзи, Сарина Фархади, Сахар Голдаст, Алиреза Джахандиде, Мосен Танабанде, Farrokh Nourbakht, Фереште Садре Орафай, Мохаммад Агхебати, Мариам Шахдаэй
Описание:
Рахим находится в тюрьме из-за непогашенного долга. Во время двухдневного отпуска он пытается убедить кредитора отозвать часть суммы. Но все идет не так, как планировалось.
Возраст: 16+ (зрителям, достигшим 16 лет. запрещено для детей)
Рейтинг MPAA: PG-13 (детям до 13 лет просмотр не желателен)
Дата мировой премьеры: 13 июля 2021
Дата российской премьеры: 10 марта 2022, «Про:взгляд»
Цифровой релиз: 21 января 2022, «Amazon Prime Video»
Продолжительность: 02:08:33
Качество видео: WEB-DLRip
Перевод: Любительский многоголосый (AlphaProject)
Язык озвучки: Русский
Субтитры: Отсутствуют
Реклама: Присутствует аудио и видео реклама + баннер.
Видео: XviD, 720x304, ~1323 Kbps
Аудио: AC3, 2 ch, 192 Kbps

MediaInfo

Общее
Полное имя : E:\Downloads\A.Hero.2021.Pa.WEB-DLRip.14OOMB.avi
Формат : AVI
Формат/Информация : Audio Video Interleave
Размер файла : 1,37 Гбайт
Продолжительность : 2 ч. 8 м.
Общий поток : 1525 Кбит/сек
Программа кодирования : VirtualDubMod 1.5.10.3 | www.virtualdub-fr.org || (build 2550/release)
Библиотека кодирования : VirtualDubMod build 2550/release
Видео
Идентификатор : 0
Формат : MPEG-4 Visual
Профиль формата : Advanced Simple@L5
Параметр BVOP формата : 2
Параметр QPel формата : Нет
Параметр GMC формата : Без точки перехода
Параметр матрицы формата : Выборочная
Идентификатор кодека : XVID
Идентификатор кодека/Подсказка : XviD
Продолжительность : 2 ч. 8 м.
Битрейт : 1323 Кбит/сек
Ширина : 720 пикселей
Высота : 304 пикселя
Соотношение сторон : 2,35:1
Частота кадров : 23,976 кадра/сек
Цветовое пространство : YUV
Субдискретизация насыщенности : 4:2:0
Битовая глубина : 8 бит
Тип развёртки : Прогрессивная
Метод сжатия : С потерями
Бит/(Пиксели*Кадры) : 0.252
Размер потока : 1,19 Гбайт (87%)
Библиотека кодирования : XviD 1.2.1 (UTC 2008-12-04)
Аудио
Идентификатор : 1
Формат : AC-3
Формат/Информация : Audio Coding 3
Расширение режима : CM (complete main)
Параметр Endianness формата : Big
Идентификатор кодека : 2000
Продолжительность : 2 ч. 8 м.
Вид битрейта : Постоянный
Битрейт : 192 Кбит/сек
Каналы : 2 канала
Расположение каналов : Front: L R
Частота : 48,0 КГц
Метод сжатия : С потерями
Размер потока : 177 Мбайт (13%)
Выравнивание : Разделение по промежуткам
Продолжительность промежутка : 42 мс. (1,00 видеокадр)
Время предзагрузки промежутка : 500 мс.
Скриншоты:
Все одноименные релизы в КлубеВремя раздачи: с 10:00 до 22:00 (минимум до появления первых 3-5 скачавших)
[Профиль] [ЛС]
Показать сообщения:    
Ответить на тему

Текущее время: 29-Фев 11:25

Часовой пояс: UTC ± 0



Вы не можете начинать темы
Вы не можете отвечать на сообщения
Вы не можете редактировать свои сообщения
Вы не можете удалять свои сообщения
Вы не можете голосовать в опросах
Вы не можете прикреплять файлы к сообщениям
Вы не можете скачивать файлы

[  Время выполнения: 0,045 сек  |  MySQL: 0,004 сек (9%) · 3 запр.  |  GZIP выкл  |  Память: 422,29 KB / 1,73 MB / 1,33 MB  |  Лимит: 9 11 11  ]