Код 355 / The 355 (2022) WEB-DLRip [H.264/1080p-LQ] [Line, AD]

Ответить на тему
 
Автор Сообщение

admin ®

Пол: Не указан

Стаж: 7 месяца 24 дня

Сообщений: 11520

Создавать темы 30-Янв-2024 14:59

[Цитировать]

Код 355 / The 355 (2022) WEB-DLRip [H.264/1080p-LQ]- Производство: США, Китай, Perfect World Pictures, Freckle Films, Genre Films, FilmNation Entertainment, Universal Pictures
Жанр: триллер, боевик
Режиссер: Саймон Кинберг
Продюсер: Келли Кармайкл, Джессика Честейн, Ричард Хьюит
Актеры: Джессика Честейн, Лупита Нионго, Дайан Крюгер, Пенелопа Крус, Фань Бинбин, Джейсон Флеминг, Пабло Скола, Марселло Крус, Эдди Арнольд, Себастьян Капитан Виверос
Описание:
Когда сверхсекретная технология попадает в руки опасных наемников, непредсказуемая агент ЦРУ Мейс вынуждена объединиться с соперницами — крутым немецким агентом Мари, бывшей союзницей из МИ-6 и передовым IT-спецом Хадижей и опытным колумбийским психологом Грасиелой, — для выполнения смертельно опасной миссии.
Героиням предстоят головокружительные погони и бои по всему миру: от кафе Парижа до рынков Марокко и роскошных аукционных домов Шанхая. Квартет женщин-спецагентов поставит под удар свою преданность национальным интересам, что поможет им спасти мир… или приведет их к гибели.
Возраст: 16+ (зрителям, достигшим 16 лет)
Рейтинг MPAA: PG-13 (детям до 13 лет просмотр нежелателен)
Дата мировой премьеры: 5 января 2022
Дата российской премьеры: 20 января 2022, «Централ Партнершип»
Продолжительность: 02:02:29
Качество видео: WEB-DLRip
Перевод: Дублированный (Line)
Субтитры: Английские
Реклама: Присутствуют баннер
Видео: AVC/H.264, 1920x800, 4183 Kbps, 23.976 fps
Аудио: АС3, 2 ch, 48 kHz, 384 Kbps | Русский

MediaInfo:

Общее
Уникальный идентификатор : 191200430484726876979041386663372815646 (0x8FD7DD0ABBB6F6D9989A64571DB27D1E)
Полное имя : D:\Код.355.2021.WEB-DLRip.[1080p].Soft-Torrent - торрент игры программы фильмы книги скачать.mkv
Формат : Matroska
Версия формата : Version 4
Размер файла : 3,91 Гбайт
Продолжительность : 2 ч. 2 м.
Общий поток : 4569 Кбит/сек
Название фильма : Код.355.2021.WEB-DLRip.[1080p].Soft-Torrent - торрент игры программы фильмы книги скачать
Дата кодирования : UTC 2022-01-28 07:45:12
Программа кодирования : mkvmerge v8.3.0 ('Over the Horizon') 64bit
Библиотека кодирования : libebml v1.3.1 + libmatroska v1.4.2
Видео
Идентификатор : 1
Формат : AVC
Формат/Информация : Advanced Video Codec
Профиль формата : High@L4.1
Настройки формата : CABAC / 4 Ref Frames
Параметр CABAC формата : Да
Параметр RefFrames формата : 4 кадра
Идентификатор кодека : V_MPEG4/ISO/AVC
Продолжительность : 2 ч. 2 м.
Битрейт : 4183 Кбит/сек
Ширина : 1920 пикселей
Высота : 800 пикселей
Соотношение сторон : 2,40:1
Режим частоты кадров : Постоянный
Частота кадров : 23,976 кадра/сек
Цветовое пространство : YUV
Субдискретизация насыщенности : 4:2:0
Битовая глубина : 8 бит
Тип развёртки : Прогрессивная
Бит/(Пиксели*Кадры) : 0.114
Размер потока : 3,58 Гбайт (92%)
Язык : English
Default : Да
Forced : Нет
Аудио
Идентификатор : 2
Формат : AC-3
Формат/Информация : Audio Coding 3
Коммерческое название : Dolby Digital
Идентификатор кодека : A_AC3
Продолжительность : 2 ч. 2 м.
Вид битрейта : Постоянный
Битрейт : 384 Кбит/сек
Каналы : 2 канала
ChannelLayout : L R
Частота : 48,0 КГц
Частота кадров : 31,250 кадров/сек (1536 SPF)
Битовая глубина : 16 бит
Метод сжатия : С потерями
Задержка видео : 11 мс.
Размер потока : 336 Мбайт (8%)
Язык : Russian
ServiceKind/String : Complete Main
Default : Да
Forced : Нет
Скриншоты:
Все одноименные релизы в КлубеВремя раздачи: 24/7 (минимум до появления первых 3-5 скачавших)
[Профиль] [ЛС]
Показать сообщения:    
Ответить на тему

Текущее время: 23-Май 05:56

Часовой пояс: UTC ± 0



Вы не можете начинать темы
Вы не можете отвечать на сообщения
Вы не можете редактировать свои сообщения
Вы не можете удалять свои сообщения
Вы не можете голосовать в опросах
Вы не можете прикреплять файлы к сообщениям
Вы не можете скачивать файлы

[  Время выполнения: 0,040 сек  |  MySQL: 0,003 сек (8%) · 3 запр.  |  GZIP выкл  |  Память: 422,49 KB / 1,74 MB / 1,34 MB  |  Лимит: 13 15 15  ]