Антитела / The Survivalist (2021) HDRip [Line, AD]

Ответить на тему
 
Автор Сообщение

admin ®

Пол: Не указан

Стаж: 4 месяца 23 дня

Сообщений: 10110

Создавать темы 30-Янв-2024 14:59

[Цитировать]

Антитела / The Survivalist (2021) HDRip«Им нужен твой иммунитет»- Производство: США / Highland Myst Entertainment Inc., LB Entertainment
Жанр: боевик, триллер
Режиссер: Джон Кейес
Актеры: Джон Малкович, Джонатан Риз Майерс, Дженна Ли Грин, Руби Модайн, Джулиан Сэндс, Джонатан Орсини, Тадеус Стрит, Саймон Филлипс, Чарли Сара, Оби Абили
Описание:
Глобальная пандемия затронула все человечество. В противостоянии оказываются главарь банды, желающий заполучить девушку с иммунитетом к вирусу, и вставший на ее защиту агент ФБР.
Возраст: 16+ (зрителям, достигшим 16 лет. запрещено для детей)
Рейтинг MPAA: R (лицам до 17 лет обязательно присутствие взрослого)
Дата мировой премьеры: 1 октября 2021
Дата российской премьеры: 20 января 2022, «Планета Информ»
Продолжительность: 01:31:07
Качество видео: HDRip
Перевод: Дублированный (Чистый звук)
Субтитры: Отсутствуют
Реклама: Присутствует аудио и видео реклама + баннер.
Видео: XviD, 720x304, ~1754 Kbps
Аудио: AC3, 2 ch, 384 Kbps

MediaInfo

Общее
Полное имя : E:\Downloads\The.Survivalist.2021.HDRip.avi
Формат : AVI
Формат/Информация : Audio Video Interleave
Размер файла : 1,37 Гбайт
Продолжительность : 1 ч. 31 м.
Общий поток : 2147 Кбит/сек
Программа кодирования : VirtualDubMod 1.5.10.3 | www.virtualdub-fr.org || (build 2550/release)
Библиотека кодирования : VirtualDubMod build 2550/release
Видео
Идентификатор : 0
Формат : MPEG-4 Visual
Профиль формата : Advanced Simple@L5
Параметр BVOP формата : 2
Параметр QPel формата : Нет
Параметр GMC формата : Без точки перехода
Параметр матрицы формата : Выборочная
Идентификатор кодека : XVID
Идентификатор кодека/Подсказка : XviD
Продолжительность : 1 ч. 31 м.
Битрейт : 1754 Кбит/сек
Ширина : 720 пикселей
Высота : 304 пикселя
Соотношение сторон : 2,35:1
Частота кадров : 23,976 кадра/сек
Цветовое пространство : YUV
Субдискретизация насыщенности : 4:2:0
Битовая глубина : 8 бит
Тип развёртки : Прогрессивная
Метод сжатия : С потерями
Бит/(Пиксели*Кадры) : 0.334
Размер потока : 1,12 Гбайт (82%)
Библиотека кодирования : XviD 1.2.1 (UTC 2008-12-04)
Аудио
Идентификатор : 1
Формат : AC-3
Формат/Информация : Audio Coding 3
Расширение режима : CM (complete main)
Параметр Endianness формата : Big
Идентификатор кодека : 2000
Продолжительность : 1 ч. 31 м.
Вид битрейта : Постоянный
Битрейт : 384 Кбит/сек
Каналы : 2 канала
Расположение каналов : Front: L R
Частота : 48,0 КГц
Метод сжатия : С потерями
Размер потока : 250 Мбайт (18%)
Выравнивание : Разделение по промежуткам
Продолжительность промежутка : 42 мс. (1,00 видеокадр)
Время предзагрузки промежутка : 500 мс.
Скриншоты:
Все одноименные релизы в КлубеВремя раздачи: с 10:00 до 22:00 (минимум до появления первых 3-5 скачавших)
[Профиль] [ЛС]
Показать сообщения:    
Ответить на тему

Текущее время: 22-Фев 01:12

Часовой пояс: UTC ± 0



Вы не можете начинать темы
Вы не можете отвечать на сообщения
Вы не можете редактировать свои сообщения
Вы не можете удалять свои сообщения
Вы не можете голосовать в опросах
Вы не можете прикреплять файлы к сообщениям
Вы не можете скачивать файлы

[  Время выполнения: 0,036 сек  |  MySQL: 0,003 сек (9%) · 3 запр.  |  GZIP выкл  |  Память: 421,85 KB / 1,73 MB / 1,33 MB  |  Лимит: 18 19 19  ]