Код 355 / The 355 (2022) WEB-DLRip [Line, AD]

Ответить на тему
 
Автор Сообщение

admin ®

Пол: Не указан

Стаж: 5 месяца

Сообщений: 10110

Создавать темы 30-Янв-2024 14:58

[Цитировать]

Код 355 / The 355 (2022) WEB-DLRip - Производство: США, Китай / Perfect World Pictures, Freckle Films, Genre Films, FilmNation Entertainment, Universal Pictures
Жанр: триллер, боевик
Режиссер: Саймон Кинберг
Продюсер: Келли Кармайкл, Джессика Честейн, Ричард Хьюит
Актеры: Джессика Честейн, Лупита Нионго, Дайан Крюгер, Пенелопа Крус, Фань Бинбин, Джейсон Флеминг, Пабло Скола, Марселло Крус, Эдди Арнольд, Себастьян Капитан Виверос
Описание:
Когда сверхсекретная технология попадает в руки опасных наемников, непредсказуемая агент ЦРУ Мейс вынуждена объединиться с соперницами — крутым немецким агентом Мари, бывшей союзницей из МИ-6 и передовым IT-спецом Хадижей и опытным колумбийским психологом Грасиелой, — для выполнения смертельно опасной миссии.
Героиням предстоят головокружительные погони и бои по всему миру: от кафе Парижа до рынков Марокко и роскошных аукционных домов Шанхая. Квартет женщин-спецагентов поставит под удар свою преданность национальным интересам, что поможет им спасти мир… или приведет их к гибели.
Возраст: 16+ (зрителям, достигшим 16 лет)
Рейтинг MPAA: PG-13 (детям до 13 лет просмотр нежелателен)
Дата мировой премьеры: 5 января 2022
Дата российской премьеры: 20 января 2022, «Централ Партнершип»
Релиз от: Anrif
Продолжительность: 02:02:28
Качество видео: WEB-DLRip
Перевод: Дублированный (Line)
Язык озвучки: Русский
Субтитры: Английские (hardsub)
Реклама: Присутствует баннер!
Видео: XviD, 720х296, 2276 kbps
Аудио: AС-3, 2 ch, 192 kbps

MediaInfo:

Общее
Полное имя : F:\[Anf].The.355.(2022).WEB-DLRip.avi
Формат : AVI
Формат/Информация : Audio Video Interleave
Профиль формата : OpenDML
Размер файла : 2,12 Гбайт
Продолжительность : 2 ч. 2 м.
Общий поток : 2 481 Кбит/сек
Название фильма : Код 355 / The 355
Режиссёр : Саймон Кинберг
Жанр : триллер, боевик
Тема : WEB-DLRip
Дата записи : 2022
Программа кодирования : VirtualDubMod 1.5.10.3 | www.virtualdub-fr.org || (build 2550/release)
Библиотека кодирования : VirtualDubMod build 2550/release
Авторское право : Perfect World Pictures, Freckle Films, Genre Films, FilmNation Entertainment, Universal Pictures
Примечание : RIP BY -=ANRIF=-
Видео
Идентификатор : 0
Формат : MPEG-4 Visual
Профиль формата : Advanced Simple@L5
Настройки формата : BVOP1
Параметр BVOP формата : 1
Параметр QPel формата : Нет
Параметр GMC формата : Без точки перехода
Параметр матрицы формата : Default (MPEG)
Идентификатор кодека : XVID
Идентификатор кодека/Подсказка : XviD
Продолжительность : 2 ч. 2 м.
Битрейт : 2 276 Кбит/сек
Ширина : 720 пикселей
Высота : 296 пикселей
Соотношение сторон : 2,40:1
Частота кадров : 23,976 (24000/1001) кадра/сек
Цветовое пространство : YUV
Субдискретизация насыщенности : 4:2:0
Битовая глубина : 8 бит
Тип развёртки : Прогрессивная
Метод сжатия : С потерями
Бит/(Пиксели*Кадры) : 0.446
Размер потока : 1,95 Гбайт (92%)
Библиотека кодирования : XviD 73
Аудио
Идентификатор : 1
Формат : AC-3
Формат/Информация : Audio Coding 3
Коммерческое название : Dolby Digital
Идентификатор кодека : 2000
Продолжительность : 2 ч. 2 м.
Вид битрейта : Постоянный
Битрейт : 192 Кбит/сек
Каналы : 2 канала
Channel layout : L R
Частота : 48,0 КГц
Частота кадров : 31,250 кадров/сек (1536 SPF)
Метод сжатия : С потерями
Размер потока : 168 Мбайт (8%)
Выравнивание : Разделение по промежуткам
Продолжительность промежутка : 42 мс. (1,00 видеокадр)
Время предзагрузки промежутка : 500 мс.
Заголовок : Русский (DUB)
Service kind : Complete Main
Скриншоты: Все одноименные релизы в Клубе Время раздачи: с 18:00 до 24:00 (до первых 3-5 скачавших)
[Профиль] [ЛС]
Показать сообщения:    
Ответить на тему

Текущее время: 28-Фев 23:03

Часовой пояс: UTC ± 0



Вы не можете начинать темы
Вы не можете отвечать на сообщения
Вы не можете редактировать свои сообщения
Вы не можете удалять свои сообщения
Вы не можете голосовать в опросах
Вы не можете прикреплять файлы к сообщениям
Вы не можете скачивать файлы

[  Время выполнения: 0,035 сек  |  MySQL: 0,003 сек (8%) · 3 запр.  |  GZIP выкл  |  Память: 422,29 KB / 1,72 MB / 1,32 MB  |  Лимит: 8 9 10  ]