Аллея кошмаров / Nightmare Alley (2021) WEB-DLRip [Line, AD]

Ответить на тему
 
Автор Сообщение

admin ®

Пол: Не указан

Стаж: 5 месяца 1 день

Сообщений: 10110

Создавать темы 30-Янв-2024 14:58

[Цитировать]

Аллея кошмаров / Nightmare Alley (2021) WEB-DLRip
«Человек или чудовище?»
- Производство: США, Мексика / Fox Searchlight Pictures, TSG Entertainment
Жанр: триллер, драма, криминал
Режиссер: Гильермо дель Торо
Продюсер: Брэдли Купер, Дж. Майлз Дэйл, Гильермо дель Торо
Актеры: Брэдли Купер, Кейт Бланшетт, Тони Коллетт, Уиллем Дефо, Ричард Дженкинс, Руни Мара, Рон Перлман, Дэвид Стрэтэйрн, Мэри Стинберген, Марк Повинелли
Описание:
Мошенник Стэн Карлайл объединяется с женщиной-психиатром, чтобы обманывать людей под видом чтения их мыслей.
Возраст: 18+ (зрителям, достигшим 18 лет. запрещено для детей)
Рейтинг MPAA: R (лицам до 17 лет обязательно присутствие взрослого)
Дата мировой премьеры: 1 декабря 2021
Дата российской премьеры: 20 января 2022, «Дисней Студиос»
Релиз от: Anrif
Продолжительность: 02:30:01
Качество видео: WEB-DLRip
Перевод: Дублированный (Line)
Язык озвучки: Русский
Субтитры: Отсутствуют
Реклама: Присутствует баннер!
Видео: XviD, 720х384, 1825 kbps
Аудио: AС-3, 2 ch, 192 kbps

MediaInfo:

Общее
Полное имя : F:\[H.264].Nightmare.Alley.(2021).WEB-DLRip.avi
Формат : AVI
Формат/Информация : Audio Video Interleave
Профиль формата : OpenDML
Размер файла : 2,13 Гбайт
Продолжительность : 2 ч. 30 м.
Общий поток : 2 029 Кбит/сек
Название фильма : Аллея кошмаров / Nightmare Alley
Режиссёр : Гильермо дель Торо
Жанр : триллер, драма, криминал
Тема : WEB-DLRip
Дата записи : 2021
Программа кодирования : VirtualDubMod 1.5.10.3 | www.virtualdub-fr.org || (build 2550/release)
Библиотека кодирования : VirtualDubMod build 2550/release
Формат оригинала/Имя : США
Авторское право : Fox Searchlight Pictures, TSG Entertainment
Примечание : RIP BY -=Anrif=-
Видео
Идентификатор : 0
Формат : MPEG-4 Visual
Профиль формата : Advanced Simple@L5
Настройки формата : BVOP1
Параметр BVOP формата : 1
Параметр QPel формата : Нет
Параметр GMC формата : Без точки перехода
Параметр матрицы формата : Default (MPEG)
Идентификатор кодека : XVID
Идентификатор кодека/Подсказка : XviD
Продолжительность : 2 ч. 30 м.
Битрейт : 1 825 Кбит/сек
Ширина : 720 пикселей
Высота : 384 пикселя
Соотношение сторон : 1,85:1
Частота кадров : 23,976 (24000/1001) кадра/сек
Цветовое пространство : YUV
Субдискретизация насыщенности : 4:2:0
Битовая глубина : 8 бит
Тип развёртки : Прогрессивная
Метод сжатия : С потерями
Бит/(Пиксели*Кадры) : 0.275
Размер потока : 1,91 Гбайт (90%)
Библиотека кодирования : XviD 73
Аудио
Идентификатор : 1
Формат : AC-3
Формат/Информация : Audio Coding 3
Коммерческое название : Dolby Digital
Идентификатор кодека : 2000
Продолжительность : 2 ч. 30 м.
Вид битрейта : Постоянный
Битрейт : 192 Кбит/сек
Каналы : 2 канала
Channel layout : L R
Частота : 48,0 КГц
Частота кадров : 31,250 кадров/сек (1536 SPF)
Метод сжатия : С потерями
Размер потока : 206 Мбайт (9%)
Выравнивание : Разделение по промежуткам
Продолжительность промежутка : 42 мс. (1,00 видеокадр)
Время предзагрузки промежутка : 500 мс.
Заголовок : Русский (DUB, Line)
Service kind : Complete Main
Скриншоты: Все одноименные релизы в Клубе Время раздачи: с 18:00 до 24:00 (до первых 3-5 скачавших)
[Профиль] [ЛС]
Показать сообщения:    
Ответить на тему

Текущее время: 29-Фев 13:09

Часовой пояс: UTC ± 0



Вы не можете начинать темы
Вы не можете отвечать на сообщения
Вы не можете редактировать свои сообщения
Вы не можете удалять свои сообщения
Вы не можете голосовать в опросах
Вы не можете прикреплять файлы к сообщениям
Вы не можете скачивать файлы

[  Время выполнения: 0,037 сек  |  MySQL: 0,003 сек (9%) · 3 запр.  |  GZIP выкл  |  Память: 422,29 KB / 1,74 MB / 1,34 MB  |  Лимит: 14 15 17  ]