Календарь дьявола / Le calendrier (2021) WEB-DLRip [MVO, AD]

Ответить на тему
 
Автор Сообщение

admin ®

Пол: Не указан

Стаж: 4 месяца 23 дня

Сообщений: 10110

Создавать темы 30-Янв-2024 14:58

[Цитировать]

Календарь дьявола / Le calendrier (2021) WEB-DLRip- Производство: Франция, Бельгия / Alba Films, BE TV, Canal+
Жанр: ужасы, триллер
Режиссер: Патрик Ридремон
Актеры: Южени Деруан, Онорин Манье, Клеман Оливери, Янис Абрих, Сирил Гарнье, Владимир Перрин, Фабьен Жегуде, Жером Пакватт, Лора Пресгурвич, Изабель Танакил
Описание:
Бывшая танцовщица Ева теперь прикована к инвалидному креслу. Однажды подруга дарит ей на Рождество старинный деревянный календарь. Оказывается, что каждое из окошек календаря содержит подарок — исполнение желания. Но каждое желание имеет свою цену, а приняв условия игры однажды, отказаться от неё уже невозможно. И чем сильнее желание, тем выше ставки.
Возраст: 18+ (зрителям, достигшим 18 лет. запрещено для детей)
Дата мировой премьеры: 30 августа 2021
Дата российской премьеры: 9 декабря 2021, «Наше Кино»
Продолжительность: 01:41:51
Качество видео: WEB-DLRip
Перевод: Любительский многоголосый (@MUZOBOZ@)
Субтитры: Английские (вшитые неотключаемые)
Реклама: Присутствует аудио и видео реклама + баннер.
Видео: XviD, 720x304, ~1529 Kbps
Аудио: AC3, 2 ch, 384 Kbps

MediaInfo

Общее
Полное имя : E:\Downloads\The.Advent.Calendar.2021.WEB-DLRip.14OOMB.avi
Формат : AVI
Формат/Информация : Audio Video Interleave
Размер файла : 1,37 Гбайт
Продолжительность : 1 ч. 41 м.
Общий поток : 1922 Кбит/сек
Программа кодирования : VirtualDubMod 1.5.10.3 | www.virtualdub-fr.org || (build 2550/release)
Библиотека кодирования : VirtualDubMod build 2550/release
Видео
Идентификатор : 0
Формат : MPEG-4 Visual
Профиль формата : Advanced Simple@L5
Параметр BVOP формата : 2
Параметр QPel формата : Нет
Параметр GMC формата : Без точки перехода
Параметр матрицы формата : Выборочная
Идентификатор кодека : XVID
Идентификатор кодека/Подсказка : XviD
Продолжительность : 1 ч. 41 м.
Битрейт : 1529 Кбит/сек
Ширина : 720 пикселей
Высота : 304 пикселя
Соотношение сторон : 2,35:1
Частота кадров : 23,976 кадра/сек
Цветовое пространство : YUV
Субдискретизация насыщенности : 4:2:0
Битовая глубина : 8 бит
Тип развёртки : Прогрессивная
Метод сжатия : С потерями
Бит/(Пиксели*Кадры) : 0.291
Размер потока : 1,09 Гбайт (80%)
Библиотека кодирования : XviD 1.2.1 (UTC 2008-12-04)
Аудио
Идентификатор : 1
Формат : AC-3
Формат/Информация : Audio Coding 3
Расширение режима : CM (complete main)
Параметр Endianness формата : Big
Идентификатор кодека : 2000
Продолжительность : 1 ч. 41 м.
Вид битрейта : Постоянный
Битрейт : 384 Кбит/сек
Каналы : 2 канала
Расположение каналов : Front: L R
Частота : 48,0 КГц
Метод сжатия : С потерями
Размер потока : 280 Мбайт (20%)
Выравнивание : Разделение по промежуткам
Продолжительность промежутка : 42 мс. (1,00 видеокадр)
Время предзагрузки промежутка : 500 мс.
Скриншоты:
Все одноименные релизы в КлубеВремя раздачи: с 10:00 до 22:00 (минимум до появления первых 3-5 скачавших)
[Профиль] [ЛС]
Показать сообщения:    
Ответить на тему

Текущее время: 22-Фев 00:01

Часовой пояс: UTC ± 0



Вы не можете начинать темы
Вы не можете отвечать на сообщения
Вы не можете редактировать свои сообщения
Вы не можете удалять свои сообщения
Вы не можете голосовать в опросах
Вы не можете прикреплять файлы к сообщениям
Вы не можете скачивать файлы

[  Время выполнения: 0,028 сек  |  MySQL: 0,004 сек (14%) · 3 запр.  |  GZIP выкл  |  Память: 421,85 KB / 1,71 MB / 1,32 MB  |  Лимит: 9 8 9  ]