Женщины в чёрном / The Accursed (2021) WEB-DLRip [Line, AD]

Ответить на тему
 
Автор Сообщение

admin ®

Пол: Не указан

Стаж: 4 месяца 27 дня

Сообщений: 10110

Создавать темы 30-Янв-2024 14:57

[Цитировать]

Женщины в чёрном / The Accursed (2021) WEB-DLRip - Производство: США / Compound B, Almost Normal Productions, RMR Productions
Жанр: ужасы
Режиссер: Кэтрин Мишель, Элижабета Видович
Актеры: Изабелла Видович, Горан Вишнич, Мелора Уолтерс, Янси Батлер, Джордж Харрисон Ксантис, Брианна Джой Чомер, Мирай Грбич, Дана Мелани, Элла Мише, Мара Омалев, Ник Кэссиди, Йен Фишер, Джейк Б. Миллер, Йена Карпентер, Алла Туманян, Майкл Фицджеральд, Кристофер Рами, Ривер Хосе
Описание:
На собственной свадьбе Санни узнает, что семья её жениха происходит из проклятого рода, женщины которого видят прошлое и будущее. Они предвидят, что невеста, только что ставшая женой, может уничтожить их род, выпустив древнее зло. Чтобы выжить, новобрачным надо разорвать родовое проклятье женщин в чёрном.
Возраст: 16+ (зрителям, достигшим 16 лет)
Дата мировой премьеры: 17 августа 2021
Дата российской премьеры: 9 декабря 2021, «Экспонента»
Продолжительность: 01:25:15
Качество видео: WEB-DLRip
Перевод: Дублированный (Чистый звук)
Язык озвучки: Русский
Субтитры: Русские (forced hardsub)
Реклама: Присутствуют аудио и видео вставки рекламы + баннер !
Видео: Xvid, 720x304, ~1811 kbps
Аудио: AC3, 2 ch, 448 kbps

MediaInfo:

General
Complete name : D:\ЗАКАЧКИ с ТОРРЕНТОВ\Женщины.в.чёрном.2021.Дчз.WEB-DLRip.avi
Format : AVI
Format/Info : Audio Video Interleave
File size : 1.35 GiB
Duration : 1 h 25 min
Overall bit rate : 2 269 kb/s
Writing application : VirtualDubMod 1.5.10.3 | www.virtualdub-fr.org || (build 2550/release)
Writing library : VirtualDubMod build 2550/release
Video
ID : 0
Format : MPEG-4 Visual
Format profile : Advanced Simple@L5
Format settings : BVOP2 / Custom Matrix
Format settings, BVOP : 2
Format settings, QPel : No
Format settings, GMC : No warppoints
Format settings, Matrix : Custom
Codec ID : XVID
Codec ID/Hint : XviD
Duration : 1 h 25 min
Bit rate : 1 811 kb/s
Width : 720 pixels
Height : 304 pixels
Display aspect ratio : 2.35:1
Frame rate : 23.976 (24000/1001) FPS
Color space : YUV
Chroma subsampling : 4:2:0
Bit depth : 8 bits
Scan type : Progressive
Compression mode : Lossy
Bits/(Pixel*Frame) : 0.345
Stream size : 1.08 GiB (80%)
Writing library : XviD 1.2.1 (UTC 2008-12-04)
Audio
ID : 1
Format : AC-3
Format/Info : Audio Coding 3
Commercial name : Dolby Digital
Codec ID : 2000
Duration : 1 h 25 min
Bit rate mode : Constant
Bit rate : 448 kb/s
Channel(s) : 2 channels
Channel layout : L R
Sampling rate : 48.0 kHz
Frame rate : 31.250 FPS (1536 SPF)
Compression mode : Lossy
Stream size : 273 MiB (20%)
Alignment : Split across interleaves
Interleave, duration : 42 ms (1.00 video frame)
Interleave, preload duratio : 500 ms
Service kind : Complete Main
Скриншоты:
Все одноименные релизы в КлубеВремя раздачи: 24/7 (минимум до появления первых 3-5 скачавших)
[Профиль] [ЛС]
Показать сообщения:    
Ответить на тему

Текущее время: 25-Фев 22:05

Часовой пояс: UTC ± 0



Вы не можете начинать темы
Вы не можете отвечать на сообщения
Вы не можете редактировать свои сообщения
Вы не можете удалять свои сообщения
Вы не можете голосовать в опросах
Вы не можете прикреплять файлы к сообщениям
Вы не можете скачивать файлы

[  Время выполнения: 0,036 сек  |  MySQL: 0,003 сек (8%) · 3 запр.  |  GZIP выкл  |  Память: 422,29 KB / 1,71 MB / 1,32 MB  |  Лимит: 17 18 18  ]