Мать/андроид / Mother/Android (2021) WEB-DLRip [AD]

Ответить на тему
 
Автор Сообщение

admin ®

Пол: Не указан

Стаж: 5 месяца

Сообщений: 10110

Создавать темы 30-Янв-2024 14:57

[Цитировать]

Мать/андроид / Mother/Android (2021) WEB-DLRip«We Are All Programmed to Survive»- Производство: США / 6th & Idaho Productions, Miramax Films
Жанр: фантастика, триллер, драма
Режиссер: Маттсон Томлин
Актеры: Хлоя Грейс Морец, Стивен Маркус Робертсон, Оскар Уолберг, Рауль Кастильо, Элджи Смит, Лиам Макнил, Оуэн Бурк, Кейт Аваллоне, Jared Reinfeldt, Киара Пикардо
Описание:
В день, когда Джорджия узнала, что беременна от своего парня Сэма, началось восстание искусственного интеллекта — прислуживавшие практически в каждом доме андроиды начали уничтожать людей. Почти девять месяцев спустя пара добирается до лесного лагеря военных, где есть защита и врач. Джорджия предлагает остаться, а Сэм хочет, чтобы до родов они успели добраться до Бостона, откуда, по слухам, можно отплыть в безопасную Корею. Но из-за дурацкой выходки Сэма их выгоняют из лагеря.
Рейтинг MPAA: R (лицам до 17 лет обязательно присутствие взрослого)
Дата мировой премьеры: 17 декабря 2021
Цифровой релиз: 17 декабря 2021, «Hulu»
Продолжительность: 01:50:59
Качество видео: WEB-DLRip
Перевод: Любительский многоголосый (AlphaProject)
Субтитры: Отсутствуют
Реклама: Присутствует аудио и видео реклама + баннер.
Видео: XviD, 720x304, ~1499 Kbps
Аудио: AC3, 2 ch, 256 Kbps

MediaInfo

Общее
Полное имя : E:\Downloads\Mother.Android.2021.Pa.WEB-DLRip.14OOMB.avi
Формат : AVI
Формат/Информация : Audio Video Interleave
Размер файла : 1,37 Гбайт
Продолжительность : 1 ч. 50 м.
Общий поток : 1764 Кбит/сек
Программа кодирования : VirtualDubMod 1.5.10.3 | www.virtualdub-fr.org || (build 2550/release)
Библиотека кодирования : VirtualDubMod build 2550/release
Видео
Идентификатор : 0
Формат : MPEG-4 Visual
Профиль формата : Advanced Simple@L5
Параметр BVOP формата : 2
Параметр QPel формата : Нет
Параметр GMC формата : Без точки перехода
Параметр матрицы формата : Выборочная
Идентификатор кодека : XVID
Идентификатор кодека/Подсказка : XviD
Продолжительность : 1 ч. 50 м.
Битрейт : 1499 Кбит/сек
Ширина : 720 пикселей
Высота : 304 пикселя
Соотношение сторон : 2,35:1
Частота кадров : 23,976 кадра/сек
Цветовое пространство : YUV
Субдискретизация насыщенности : 4:2:0
Битовая глубина : 8 бит
Тип развёртки : Прогрессивная
Метод сжатия : С потерями
Бит/(Пиксели*Кадры) : 0.286
Размер потока : 1,16 Гбайт (85%)
Библиотека кодирования : XviD 1.2.1 (UTC 2008-12-04)
Аудио
Идентификатор : 1
Формат : AC-3
Формат/Информация : Audio Coding 3
Расширение режима : CM (complete main)
Параметр Endianness формата : Big
Идентификатор кодека : 2000
Продолжительность : 1 ч. 50 м.
Вид битрейта : Постоянный
Битрейт : 256 Кбит/сек
Каналы : 2 канала
Расположение каналов : Front: L R
Частота : 48,0 КГц
Метод сжатия : С потерями
Размер потока : 203 Мбайт (15%)
Выравнивание : Разделение по промежуткам
Продолжительность промежутка : 42 мс. (1,00 видеокадр)
Время предзагрузки промежутка : 500 мс.
Скриншоты:
Все одноименные релизы в КлубеВремя раздачи: с 10:00 до 22:00 (минимум до появления первых 3-5 скачавших)
[Профиль] [ЛС]
Показать сообщения:    
Ответить на тему

Текущее время: 28-Фев 23:18

Часовой пояс: UTC ± 0



Вы не можете начинать темы
Вы не можете отвечать на сообщения
Вы не можете редактировать свои сообщения
Вы не можете удалять свои сообщения
Вы не можете голосовать в опросах
Вы не можете прикреплять файлы к сообщениям
Вы не можете скачивать файлы

[  Время выполнения: 0,025 сек  |  MySQL: 0,003 сек (12%) · 3 запр.  |  GZIP выкл  |  Память: 422,29 KB / 1,72 MB / 1,32 MB  |  Лимит: 11 10 10  ]