Обитель зла: Раккун-Сити / Resident Evil: Welcome to Raccoon City (2021) WEB-DLRip [H.264/1080p-LQ] [Line, AD]

Ответить на тему
 
Автор Сообщение

admin ®

Пол: Не указан

Стаж: 4 месяца 27 дня

Сообщений: 10110

Создавать темы 30-Янв-2024 14:57

[Цитировать]

Обитель зла: Раккун-Сити / Resident Evil: Welcome to Raccoon City (2021) (2021) WEB-DLRip [H.264/1080p-LQ]- Производство: Германия, Франция, США, Constantin Film, Davis Films
Жанр: ужасы, фантастика, боевик, триллер
Режиссер: Йоханнес Робертс
Продюсер: Хартли Горенштейн, Джеймс Харрис, Роберт Кульцер
Актеры: Кая Скоделарио, Ханна Джон-Кэймен, Робби Амелл, Том Хоппер, Эван Джогиа, Донал Лог, Нил МакДонаф, Лили Гао, Чад Рук, Марина Мазепа
Описание:
Раккун-Сити, где когда-то располагался фармацевтический гигант Umbrella и вовсю бурлила жизнь, превратился в город-призрак. Компания давно переехала, но на ее месте глубоко под землей набирает силу великое зло. Когда оно вырвется на свободу, единственный шанс выжить уцелевшей горстке людей — сплотиться и узнать всю правду о корпорации Umbrellа.
Возраст: 18+ (зрителям, достигшим 18 лет. запрещено для детей)
Рейтинг MPAA: R (лицам до 17 лет обязательно присутствие взрослого)
Дата мировой премьеры: 19 ноября 2021
Дата российской премьеры: 25 ноября 2021, «СППР»
Продолжительность: 01:47:42
Качество видео: WEB-DLRip
Перевод: Дублированный (Line)
Субтитры: Отсутствуют
Реклама: Присутствуют баннер
Видео: AVC/H.264, 1920x808, 3209 Kbps, 23.976 fps
Аудио: АС3, 2 ch, 48 kHz, 384 Kbps | Русский

MediaInfo:

Общее
Полное имя : D:\Обитель.зла.Раккун-Сити.2021.WEB-DLRip.[1080p].Soft-Torrent - торрент игры программы фильмы книги скачать.mkv
Формат : Matroska
Версия формата : Version 2
Размер файла : 2,76 Гбайт
Продолжительность : 1 ч. 47 м.
Общий поток : 3666 Кбит/сек
Программа кодирования : libmatroska 1.4.1
Библиотека кодирования : SolveigMM Matroska Muxer Version 1.0.2010.29
Видео
Идентификатор : 1
Формат : AVC
Формат/Информация : Advanced Video Codec
Профиль формата : High@L4.1
Настройки формата : CABAC / 4 Ref Frames
Параметр CABAC формата : Да
Параметр RefFrames формата : 4 кадра
Идентификатор кодека : V_MPEG4/ISO/AVC
Продолжительность : 1 ч. 47 м.
Битрейт : 3209 Кбит/сек
Ширина : 1920 пикселей
Высота : 808 пикселей
Соотношение сторон : 2,40:1
Режим частоты кадров : Постоянный
Частота кадров : 23,976 кадра/сек
Цветовое пространство : YUV
Субдискретизация насыщенности : 4:2:0
Битовая глубина : 8 бит
Тип развёртки : Прогрессивная
Бит/(Пиксели*Кадры) : 0.086
Размер потока : 2,41 Гбайт (88%)
Язык : English
Default : Да
Forced : Нет
Аудио
Идентификатор : 2
Формат : AC-3
Формат/Информация : Audio Coding 3
Коммерческое название : Dolby Digital
Идентификатор кодека : A_AC3
Продолжительность : 1 ч. 47 м.
Вид битрейта : Постоянный
Битрейт : 384 Кбит/сек
Каналы : 2 канала
ChannelLayout : L R
Частота : 48,0 КГц
Частота кадров : 31,250 кадров/сек (1536 SPF)
Битовая глубина : 16 бит
Метод сжатия : С потерями
Задержка видео : 11 мс.
Размер потока : 296 Мбайт (10%)
Язык : Russian
ServiceKind/String : Complete Main
Default : Да
Forced : Нет
Скриншоты:
Все одноименные релизы в КлубеВремя раздачи: 24/7 (минимум до появления первых 3-5 скачавших)
[Профиль] [ЛС]
Показать сообщения:    
Ответить на тему

Текущее время: 25-Фев 17:25

Часовой пояс: UTC ± 0



Вы не можете начинать темы
Вы не можете отвечать на сообщения
Вы не можете редактировать свои сообщения
Вы не можете удалять свои сообщения
Вы не можете голосовать в опросах
Вы не можете прикреплять файлы к сообщениям
Вы не можете скачивать файлы

[  Время выполнения: 0,034 сек  |  MySQL: 0,004 сек (12%) · 6 запр.  |  GZIP выкл  |  Память: 422,29 KB / 1,72 MB / 1,32 MB  |  Лимит: 9 9 9  ]