Матрица: Воскрешение / The Matrix Resurrections (2021) WEB-DLRip [Line, AD]

Ответить на тему
 
Автор Сообщение

admin ®

Пол: Не указан

Стаж: 5 месяца

Сообщений: 10110

Создавать темы 30-Янв-2024 14:56

[Цитировать]

Матрица: Воскрешение / The Matrix Resurrections (2021) WEB-DLRip - Производство: США / NPV Entertainment, Silver Pictures, Village Roadshow Pictures, Warner Bros.
Жанр: фантастика, боевик
Режиссер: Лана Вачовски
Продюсер: Грант Хилл, Джеймс МакТиг, Лана Вачовски
Актеры: Киану Ривз, Кэрри-Энн Мосс, Яхья Абдул-Матин II, Джонатан Грофф, Джессика Хенвик, Нил Патрик Харрис, Джада Пинкетт Смит, Приянка Чопра Джонас, Кристина Риччи, Ламбер Вильсон
Описание:
В двух реальностях Нео снова придется выбирать, следовать ли за белым кроликом. Выбор, пусть и иллюзорный, все еще остается единственным путем в Матрицу или из нее, что более опасно, чем когда-либо.
Возраст: 16+ (зрителям, достигшим 16 лет)
Рейтинг MPAA: R (лицам до 17 лет обязательно присутствие взрослого)
Дата мировой премьеры: 16 декабря 2021
Дата российской премьеры: 16 декабря 2021, «UPI»
Релиз от: Anrif
Продолжительность: 02:27:48
Качество видео: WEB-DLRip
Перевод: Дублированный (Line)
Язык озвучки: Русский
Субтитры: Отсутствуют
Реклама: Присутствует баннер!
Видео: XviD, 720х304, 2001 kbps
Аудио: AС-3, 2 ch, 256 kbps - Русский

MediaInfo:

Общее
Полное имя : F:\[Anf].The.Matrix.Resurrections.(2021).WEB-DLRip.avi
Формат : AVI
Формат/Информация : Audio Video Interleave
Профиль формата : OpenDML
Размер файла : 2,34 Гбайт
Продолжительность : 2 ч. 27 м.
Общий поток : 2 268 Кбит/сек
Программа кодирования : VirtualDubMod 1.5.10.3 | www.virtualdub-fr.org || (build 2550/release)
Библиотека кодирования : VirtualDubMod build 2550/release
Видео
Идентификатор : 0
Формат : MPEG-4 Visual
Профиль формата : Advanced Simple@L5
Настройки формата : BVOP1
Параметр BVOP формата : 1
Параметр QPel формата : Нет
Параметр GMC формата : Без точки перехода
Параметр матрицы формата : Default (MPEG)
Идентификатор кодека : XVID
Идентификатор кодека/Подсказка : XviD
Продолжительность : 2 ч. 27 м.
Битрейт : 2 001 Кбит/сек
Ширина : 720 пикселей
Высота : 304 пикселя
Соотношение сторон : 2,35:1
Частота кадров : 23,976 (24000/1001) кадра/сек
Цветовое пространство : YUV
Субдискретизация насыщенности : 4:2:0
Битовая глубина : 8 бит
Тип развёртки : Прогрессивная
Метод сжатия : С потерями
Бит/(Пиксели*Кадры) : 0.381
Размер потока : 2,07 Гбайт (88%)
Библиотека кодирования : XviD 73
Аудио
Идентификатор : 1
Формат : AC-3
Формат/Информация : Audio Coding 3
Коммерческое название : Dolby Digital
Идентификатор кодека : 2000
Продолжительность : 2 ч. 27 м.
Вид битрейта : Постоянный
Битрейт : 256 Кбит/сек
Каналы : 2 канала
Channel layout : L R
Частота : 48,0 КГц
Частота кадров : 31,250 кадров/сек (1536 SPF)
Метод сжатия : С потерями
Размер потока : 271 Мбайт (11%)
Выравнивание : Разделение по промежуткам
Продолжительность промежутка : 42 мс. (1,00 видеокадр)
Время предзагрузки промежутка : 500 мс.
Заголовок : Русский (DUB, Line)
Service kind : Complete Main
Скриншоты: Все одноименные релизы в Клубе Время раздачи: с 18:00 до 24:00 (до первых 3-5 скачавших)
[Профиль] [ЛС]
Показать сообщения:    
Ответить на тему

Текущее время: 28-Фев 22:26

Часовой пояс: UTC ± 0



Вы не можете начинать темы
Вы не можете отвечать на сообщения
Вы не можете редактировать свои сообщения
Вы не можете удалять свои сообщения
Вы не можете голосовать в опросах
Вы не можете прикреплять файлы к сообщениям
Вы не можете скачивать файлы

[  Время выполнения: 0,029 сек  |  MySQL: 0,003 сек (10%) · 3 запр.  |  GZIP выкл  |  Память: 422,29 KB / 1,72 MB / 1,32 MB  |  Лимит: 10 12 15  ]