Рождественское обещание / The Christmas Promise (2021) HDTVRip [H.264/720p-LQ] [MVO] [AD]

Ответить на тему
 
Автор Сообщение

admin ®

Пол: Не указан

Стаж: 5 месяца

Сообщений: 10110

Создавать темы 30-Янв-2024 14:55

[Цитировать]

Рождественское обещание / The Christmas Promise (2021) HDTVRip [H.264/720p-LQ]- Производство: Канада / Front Street Pictures
Жанр: комедия
Режиссер: Фред Гербер
Актеры: Торри ДеВито, Патрик Даффи, Дилан Брюс, Тара Уилсон (I), Мэттью Дж Доуден, Джиллз Пэнтон, Лиза МакФадден, Джазлин Онаба
Описание:
Переживая трагическую потерю жениха, в попытках забыть прошлое Николь планирует продать их дом и нанимает рабочего по имени Джо, чтобы тот занялся ремонтом дома перед продажей. При этом с телефона погибшего жениха девушка получает сообщение от нового владельца номера, который тоже пережил потерю близкого человека и готов помочь ей справиться с утратой.
Дата мировой премьеры: 30 октября 2021
Продолжительность: 01:24:21
Качество видео: HDTVRip
Перевод: Многоголосый профессиональный (Синема УС)
Субтитры: Отсутствуют
Реклама: Присутствует баннер.
Видео: AVC/H.264, 1280x720, ~5259 Kbps
Аудио: AC-3, 2 ch, 256 Kbps

MediaInfo:

Общее
Уникальный идентификатор : 171181769294112550548661771348245409291 (0x80C868D7B917155A8AE5BD8CB482EE0B)
Полное имя : C:\Christmas\Рождественское обещание\The.Christmas.Promise.2021.HDTVRip.720p-LQ.mkv
Формат : Matroska
Версия формата : Version 4
Размер файла : 3,32 Гбайт
Продолжительность : 1 ч. 24 м.
Режим общего битрейта : Переменный
Общий поток : 5 627 Кбит/сек
Дата кодирования : UTC 2021-12-23 10:06:19
Программа кодирования : mkvmerge v6.9.1 ('Blue Panther') 32bit built on Apr 18 2014 18:15:44
Библиотека кодирования : libebml v1.3.0 + libmatroska v1.4.1
Видео
Идентификатор : 1
Формат : AVC
Формат/Информация : Advanced Video Codec
Профиль формата : High@L4.1
Настройки формата : CABAC / 4 Ref Frames
Параметр CABAC формата : Да
Параметр RefFrames формата : 4 кадра
Идентификатор кодека : V_MPEG4/ISO/AVC
Продолжительность : 1 ч. 24 м.
Вид битрейта : Переменный
Битрейт : 5 259 Кбит/сек
Номинальный битрейт : 6 000 Кбит/сек
Максимальный битрейт : 6 000 Кбит/сек
Ширина : 1 280 пикселей
Высота : 720 пикселей
Соотношение сторон : 16:9
Режим частоты кадров : Постоянный
Частота кадров : 23,976 (24000/1001) кадра/сек
Стандарт вещания : Component
Цветовое пространство : YUV
Субдискретизация насыщенности : 4:2:0
Битовая глубина : 8 бит
Тип развёртки : Прогрессивная
Бит/(Пиксели*Кадры) : 0.238
Размер потока : 3,10 Гбайт (93%)
Default : Да
Forced : Нет
Цветовой диапазон : Limited
Основные цвета : BT.709
Характеристики трансфера : BT.709
Коэффициенты матрицы : BT.709
Аудио
Идентификатор : 2
Формат : AC-3
Формат/Информация : Audio Coding 3
Коммерческое название : Dolby Digital
Идентификатор кодека : A_AC3
Продолжительность : 1 ч. 24 м.
Вид битрейта : Постоянный
Битрейт : 256 Кбит/сек
Каналы : 2 канала
Channel layout : L R
Частота : 48,0 КГц
Частота кадров : 31,250 кадров/сек (1536 SPF)
Метод сжатия : С потерями
Размер потока : 154 Мбайт (5%)
Язык : Russian
Service kind : Complete Main
Default : Да
Forced : Нет
Скриншоты: Все одноименные релизы в КлубеВремя раздачи: 24/7 (до 10-ти скачавших)
[Профиль] [ЛС]
Показать сообщения:    
Ответить на тему

Текущее время: 28-Фев 23:30

Часовой пояс: UTC ± 0



Вы не можете начинать темы
Вы не можете отвечать на сообщения
Вы не можете редактировать свои сообщения
Вы не можете удалять свои сообщения
Вы не можете голосовать в опросах
Вы не можете прикреплять файлы к сообщениям
Вы не можете скачивать файлы

[  Время выполнения: 0,039 сек  |  MySQL: 0,003 сек (8%) · 5 запр.  |  GZIP выкл  |  Память: 422,29 KB / 1,73 MB / 1,34 MB  |  Лимит: 10 9 10  ]