Треугольник Дьявола / Devils Triangle (2021) WEB-DLRip [H.264/1080p-LQ] [MVO] [AD]

Ответить на тему
 
Автор Сообщение

admin ®

Пол: Не указан

Стаж: 4 месяца 27 дня

Сообщений: 10110

Создавать темы 30-Янв-2024 14:53

[Цитировать]

Треугольник Дьявола / Devils Triangle (2021) WEB-DLRip [H.264/1080p-LQ]- Производство: США / The Asylum
Жанр: фантастика, фэнтези, боевик
Режиссер: Брендан Петриццо
Актеры: Диана Принц, Фред Уильямсон, Алисон Горске, Эрика Дьюк, Морган Брэдли, Вероника Исса, Алисса Филорамо, Торри Ричардсон, Шэрон Дезри, Джорди Талленерс
Описание:
Группа морских биологов терпит крушение в Бермудском треугольнике, оказавшись в затерянном городе Атлантиды. Но вскоре они понимают, что город настроен к ним недружелюбно, и его обитатели планируют мировое господство с помощью оружия и технологий, которые через Треугольник попадали в их мир на протяжении веков.
Дата мировой премьеры: 26 ноября 2021
Продолжительность: 01:27:37
Качество видео: WEB-DLRip
Перевод: Многоголосый профессиональный (Синема УС)
Субтитры: Отсутствуют
Реклама: Присутствует баннер.
Видео: AVC/H.264, 1916x798, ~6989 Kbps
Аудио: AC3, 2 ch, 384 Kbps

MediaInfo:

Общее
Полное имя : C:\NNM\Треугольник Дьявола\Devils.Triangle.2021.WEB-DLRip.1080p-LQ.mkv
Формат : Matroska
Версия формата : Version 2
Размер файла : 4,60 Гбайт
Продолжительность : 1 ч. 27 м.
Режим общего битрейта : Постоянный
Общий поток : 7 523 Кбит/сек
Программа кодирования : libmatroska 1.4.1
Библиотека кодирования : SolveigMM Matroska Muxer Version 1.0.1904.23
Видео
Идентификатор : 1
Формат : AVC
Формат/Информация : Advanced Video Codec
Профиль формата : High@L4.1
Настройки формата : CABAC / 4 Ref Frames
Параметр CABAC формата : Да
Параметр RefFrames формата : 4 кадра
Идентификатор кодека : V_MPEG4/ISO/AVC
Продолжительность : 1 ч. 27 м.
Вид битрейта : Постоянный
Битрейт : 6 989 Кбит/сек
Номинальный битрейт : 8 000 Кбит/сек
Ширина : 1 916 пикселей
Высота : 798 пикселей
Соотношение сторон : 2,40:1
Режим частоты кадров : Постоянный
Частота кадров : 23,976 (24000/1001) кадра/сек
Стандарт вещания : Component
Цветовое пространство : YUV
Субдискретизация насыщенности : 4:2:0
Битовая глубина : 8 бит
Тип развёртки : Прогрессивная
Бит/(Пиксели*Кадры) : 0.191
Размер потока : 4,28 Гбайт (93%)
Default : Нет
Forced : Нет
Цветовой диапазон : Limited
Основные цвета : BT.709
Характеристики трансфера : BT.709
Коэффициенты матрицы : BT.709
Аудио
Идентификатор : 2
Формат : AC-3
Формат/Информация : Audio Coding 3
Коммерческое название : Dolby Digital
Идентификатор кодека : A_AC3
Продолжительность : 1 ч. 27 м.
Вид битрейта : Постоянный
Битрейт : 384 Кбит/сек
Каналы : 2 канала
Channel layout : L R
Частота : 48,0 КГц
Частота кадров : 31,250 кадров/сек (1536 SPF)
Метод сжатия : С потерями
Размер потока : 241 Мбайт (5%)
Язык : Russian
Service kind : Complete Main
Default : Нет
Forced : Нет
Скриншоты: Все одноименные релизы в КлубеВремя раздачи: 24/7 (до 10-ти скачавших)
[Профиль] [ЛС]
Показать сообщения:    
Ответить на тему

Текущее время: 25-Фев 22:22

Часовой пояс: UTC ± 0



Вы не можете начинать темы
Вы не можете отвечать на сообщения
Вы не можете редактировать свои сообщения
Вы не можете удалять свои сообщения
Вы не можете голосовать в опросах
Вы не можете прикреплять файлы к сообщениям
Вы не можете скачивать файлы

[  Время выполнения: 0,033 сек  |  MySQL: 0,003 сек (9%) · 3 запр.  |  GZIP выкл  |  Память: 422,29 KB / 1,72 MB / 1,32 MB  |  Лимит: 9 12 14  ]