Американский убийца / American Sicario (2021) WEB-DLRip [H.264/1080p-LQ] [MVO, AD]

Ответить на тему
 
Автор Сообщение

admin ®

Пол: Не указан

Стаж: 6 месяца 22 дня

Сообщений: 11520

Создавать темы 30-Янв-2024 14:52

[Цитировать]

Американский убийца / American Sicario (2021) WEB-DLRip [H.264/1080p-LQ]- Производство: США / драма, боевик, криминал
Жанр: драма, боевик, криминал
Режиссер: Раджа Коллинз
Продюсер: Ross Campbell, Морис Комт, Эллиотт Майкл Смит
Актеры: Дэнни Трехо, Майя Стоян, Морис Комт, Джонни Рей Диас, Дион Баско, Джейлен Мур, Брук Ласк, Роберт Аревало, Марго Куинн, Philippe A. Haddad
Описание:
Американский гангстер Эрик Васкес замышляет стать главным боссом в мексиканском преступном мире. Он наживает себе множество врагов как из могущественных картелей, так и из своих собственных союзников. Основано на реальный событиях.
Рейтинг MPAA: R (лицам до 17 лет обязательно присутствие взрослого)
Дата мировой премьеры: 10 декабря 2021
Релиз от: Anrif
Продолжительность: 01:40:21
Качество видео: WEB-DLRip
Перевод: Любительский многоголосый (Muzoboz)
Язык озвучки: Русский
Субтитры: Английские (hardsub)
Реклама: Присутствует баннер
Видео: AVC/H.264, 1920x800, ~13,0 Mbps
Аудио: AС-3, 2 ch, 256 kbps - Русский

MediaInfo:

Общее
Уникальный идентификатор : 250888085798642619115708808758008002471 (0xBCBF49A78E79C3E3985D3AD50B8CB7A7)
Полное имя : F:\[Anf].American.Sicario.(2021).WEB-DLRip.[1080p-LQ].mkv
Формат : Matroska
Версия формата : Version 4
Размер файла : 9,29 Гбайт
Продолжительность : 1 ч. 40 м.
Режим общего битрейта : Переменный
Общий поток : 13,3 Мбит/сек
Название фильма : Американский убийца / American Sicario_(2021)
Дата кодирования : UTC 2021-12-05 09:39:22
Программа кодирования : mkvmerge v8.3.0 ('Over the Horizon') 64bit
Библиотека кодирования : libebml v1.3.1 + libmatroska v1.4.2
Обложка : Yes
Attachments : cover.png
Видео
Идентификатор : 1
Формат : AVC
Формат/Информация : Advanced Video Codec
Профиль формата : High@L4.1
Настройки формата : CABAC / 4 Ref Frames
Параметр CABAC формата : Да
Параметр RefFrames формата : 4 кадра
Идентификатор кодека : V_MPEG4/ISO/AVC
Продолжительность : 1 ч. 40 м.
Вид битрейта : Переменный
Битрейт : 13,0 Мбит/сек
Максимальный битрейт : 15,0 Мбит/сек
Ширина : 1 920 пикселей
Высота : 800 пикселей
Соотношение сторон : 2,40:1
Режим частоты кадров : Постоянный
Частота кадров : 23,976 (24000/1001) кадра/сек
Стандарт вещания : Component
Цветовое пространство : YUV
Субдискретизация насыщенности : 4:2:0
Битовая глубина : 8 бит
Тип развёртки : Прогрессивная
Бит/(Пиксели*Кадры) : 0.353
Размер потока : 9,11 Гбайт (98%)
Заголовок : -=Anrif=-
Default : Да
Forced : Нет
Цветовой диапазон : Limited
Основные цвета : BT.709
Характеристики трансфера : BT.709
Коэффициенты матрицы : BT.709
Аудио
Идентификатор : 2
Формат : AC-3
Формат/Информация : Audio Coding 3
Коммерческое название : Dolby Digital
Идентификатор кодека : A_AC3
Продолжительность : 1 ч. 40 м.
Вид битрейта : Постоянный
Битрейт : 256 Кбит/сек
Каналы : 2 канала
Channel layout : L R
Частота : 48,0 КГц
Частота кадров : 31,250 кадров/сек (1536 SPF)
Метод сжатия : С потерями
Размер потока : 184 Мбайт (2%)
Заголовок : (MVO, MUZOBOZ)
Язык : Russian
Service kind : Complete Main
Default : Да
Forced : Нет
Скриншоты: Все одноименные релизы в Клубе Время раздачи: с 18:00 до 24:00 (до первых 3-5 скачавших)
[Профиль] [ЛС]
Показать сообщения:    
Ответить на тему

Текущее время: 20-Апр 19:35

Часовой пояс: UTC ± 0



Вы не можете начинать темы
Вы не можете отвечать на сообщения
Вы не можете редактировать свои сообщения
Вы не можете удалять свои сообщения
Вы не можете голосовать в опросах
Вы не можете прикреплять файлы к сообщениям
Вы не можете скачивать файлы

[  Время выполнения: 0,036 сек  |  MySQL: 0,003 сек (9%) · 5 запр.  |  GZIP выкл  |  Память: 422,29 KB / 1,73 MB / 1,34 MB  |  Лимит: 6 6 8  ]