Миллион миль от Земли / A Million Miles Away (2023) - Скачать торрент

Ответить на тему
 
Автор Сообщение

admin ®

Пол: Не указан

Стаж: 6 месяца 19 дня

Сообщений: 11520

Создавать темы 01-Окт-2023 16:38

[Цитировать]

Миллион миль от Земли / A Million Miles Away (2023) - Скачать торрент - Производство: Мексика, США / Amazon Studios, Redrum, Select Films
Жанр: драма
Режиссер: Алехандра Маркес Абелла
Продюсер: Eugen Bräunig, Марк Кьярди, Kyle Convissar
Актеры: Майкл Пенья, Роза Салазар, Хулио Седильо, Вероника Фалькон, Juan Pablo Monterrubio, Гаррет Диллахант, Сарайю Блю, Бобби Сото, Эшли Сиарра, Эрик Джонсон
Описание:
Хосе Эрнандес обычный фермер. Он трудится над возделыванием земли, надеясь, что урожай этого года окажется больше. Но помимо повседневных трудов мужчина регулярно занимается. История сельскохозяйственного рабочего-мигранта Хосе Эрнандеса, который мечтал побывать в космосе и благодаря своему упорству, вере и самопожертвовании он смог осуществить эту невероятную мечту.
Рейтинг MPAA: PG (рекомендуется присутствие родителей)
Релиз от: Rip by vitolinform
Продолжительность: 02:02:07
Качество видео: WEB-DLRip
Перевод: Многоголосый профессиональный (TVShows, Jaskier)
Язык озвучки: русский, английский
Субтитры: русские, английские (SDH), украинские, французские
Видео: AVC/H.264, 1024x554, ~1839 Kbps
Аудио 1: AC3, 6 ch, 448 Кbps | Русский (MVO, TVShows)
Аудио 2: AC3, 6 ch, 448 Кbps | Русский (MVO, Jaskier)
Аудио 3: AC3, 6 ch, 448 Кbps | Английский

MediaInfo:

avs [info]: 1024x554p 1:1 @ 24/1 fps (cfr)
x264 [info]: using SAR=1/1
x264 [info]: using cpu capabilities: MMX2 SSE2Fast SSSE3 SSE4.2 AVX FMA3 BMI2 AVX2
x264 [info]: profile High, level 4.1, 4:2:0, 8-bit
x264 [info]: frame I:1249 Avg QP:13.22 size: 83269
x264 [info]: frame P:42207 Avg QP:18.06 size: 21564
x264 [info]: frame B:132400 Avg QP:20.81 size: 5063
x264 [info]: consecutive B-frames: 2.4% 3.3% 12.5% 35.6% 12.0% 22.7% 3.5% 4.0% 1.0% 1.1% 1.8%
x264 [info]: mb I I16..4: 13.6% 63.9% 22.5%
x264 [info]: mb P I16..4: 1.6% 7.5% 1.2% P16..4: 39.4% 24.5% 13.5% 0.0% 0.0% skip:12.4%
x264 [info]: mb B I16..4: 0.1% 0.6% 0.1% B16..8: 37.7% 7.7% 1.9% direct: 2.9% skip:49.0% L0:41.9% L1:46.9% BI:11.2%
x264 [info]: 8x8 transform intra:71.6% inter:65.0%
x264 [info]: direct mvs spatial:99.8% temporal:0.2%
x264 [info]: coded y,uvDC,uvAC intra: 77.6% 74.5% 50.8% inter: 15.9% 15.2% 7.8%
x264 [info]: i16 v,h,dc,p: 38% 19% 5% 39%
x264 [info]: i8 v,h,dc,ddl,ddr,vr,hd,vl,hu: 14% 12% 8% 8% 12% 12% 12% 11% 12%
x264 [info]: i4 v,h,dc,ddl,ddr,vr,hd,vl,hu: 13% 12% 5% 8% 14% 13% 13% 10% 12%
x264 [info]: i8c dc,h,v,p: 42% 24% 19% 15%
x264 [info]: Weighted P-Frames: Y:3.0% UV:1.7%
x264 [info]: ref P L0: 54.2% 12.0% 13.9% 5.1% 3.7% 2.7% 2.3% 1.2% 1.2% 1.0% 0.9% 0.8% 0.9% 0.0% 0.0%
x264 [info]: ref B L0: 77.2% 9.9% 4.7% 2.1% 1.5% 1.3% 1.0% 0.8% 0.6% 0.4% 0.3% 0.2%
x264 [info]: ref B L1: 94.6% 5.4%
x264 [info]: kb/s:1839.18
encoded 175856 frames, 11.61 fps, 1839.18 kb/s
Final statistics
======================================================
General
Unique ID : 142846543030203266607220141366424241359 (0x6B773E53E145F6D00ACB1E56DD7204CF)
Complete name : D:\Million.mil.ot.Zemli.2023.AMZN.WEB-DLRip.AVC.mkv
Format : Matroska
Format version : Version 4
File size : 2.72 GiB
Duration : 2 h 2 min
Overall bit rate : 3 186 kb/s
Frame rate : 24.000 FPS
Movie name : A Million Miles Away (2023) WEB-DLRip AVC _ vitolinform
Encoded date : 2023-09-23 02:02:41 UTC
Writing application : mkvmerge v76.0 ('Celebration') 64-bit
Writing library : libebml v1.4.4 + libmatroska v1.7.1
Attachments : poster.jpg / log.log
Video
ID : 1
Format : AVC
Format/Info : Advanced Video Codec
Format profile : High@L4.1
Format settings : CABAC / 13 Ref Frames
Format settings, CABAC : Yes
Format settings, Reference frames : 13 frames
Codec ID : V_MPEG4/ISO/AVC
Duration : 2 h 2 min
Bit rate : 1 839 kb/s
Width : 1 024 pixels
Height : 554 pixels
Display aspect ratio : 1.85:1
Frame rate mode : Constant
Frame rate : 24.000 FPS
Color space : YUV
Chroma subsampling : 4:2:0
Bit depth : 8 bits
Scan type : Progressive
Bits/(Pixel*Frame) : 0.135
Stream size : 1.57 GiB (58%)
Title : Миллион миль от Земли / A Million Miles Away (2023)
Writing library : x264 core 164 r3107 a8b68eb
Encoding settings : cabac=1 / ref=13 / deblock=1:-3:-3 / analyse=0x3:0x113 / me=umh / subme=10 / psy=1 / psy_rd=1.00:0.05 / mixed_ref=1 / me_range=32 / chroma_me=1 / trellis=2 / 8x8dct=1 / cqm=0 / deadzone=21,11 / fast_pskip=0 / chroma_qp_offset=-3 / threads=12 / lookahead_threads=3 / sliced_threads=0 / nr=0 / decimate=0 / interlaced=0 / bluray_compat=0 / constrained_intra=0 / bframes=10 / b_pyramid=2 / b_adapt=2 / b_bias=0 / direct=3 / weightb=1 / open_gop=0 / weightp=2 / keyint=240 / keyint_min=23 / scenecut=40 / intra_refresh=0 / rc_lookahead=40 / rc=crf / mbtree=1 / crf=17.5 / qcomp=0.60 / qpmin=0 / qpmax=69 / qpstep=4 / vbv_maxrate=50000 / vbv_bufsize=62500 / crf_max=0.0 / nal_hrd=none / filler=0 / ip_ratio=1.40 / aq=1:1.00
Language : English
Default : Yes
Forced : No
Color range : Limited
Color primaries : BT.709
Transfer characteristics : BT.709
Matrix coefficients : BT.709
Audio #1
ID : 2
Format : AC-3
Format/Info : Audio Coding 3
Commercial name : Dolby Digital
Codec ID : A_AC3
Duration : 2 h 2 min
Bit rate mode : Constant
Bit rate : 448 kb/s
Channel(s) : 6 channels
Channel layout : L R C LFE Ls Rs
Sampling rate : 48.0 kHz
Frame rate : 31.250 FPS (1536 SPF)
Compression mode : Lossy
Stream size : 391 MiB (14%)
Title : MVO | TVShows
Language : Russian
Service kind : Complete Main
Default : Yes
Forced : No
Audio #2
ID : 3
Format : AC-3
Format/Info : Audio Coding 3
Commercial name : Dolby Digital
Codec ID : A_AC3
Duration : 2 h 2 min
Bit rate mode : Constant
Bit rate : 448 kb/s
Channel(s) : 6 channels
Channel layout : L R C LFE Ls Rs
Sampling rate : 48.0 kHz
Frame rate : 31.250 FPS (1536 SPF)
Compression mode : Lossy
Stream size : 391 MiB (14%)
Title : MVO | Jaskier
Language : Russian
Service kind : Complete Main
Default : No
Forced : No
Audio #3
ID : 4
Format : AC-3
Format/Info : Audio Coding 3
Commercial name : Dolby Digital
Codec ID : A_AC3
Duration : 2 h 2 min
Bit rate mode : Constant
Bit rate : 448 kb/s
Channel(s) : 6 channels
Channel layout : L R C LFE Ls Rs
Sampling rate : 48.0 kHz
Frame rate : 31.250 FPS (1536 SPF)
Compression mode : Lossy
Stream size : 391 MiB (14%)
Title : English
Language : Russian
Service kind : Complete Main
Default : No
Forced : No
Text #1
ID : 5
Format : UTF-8
Codec ID : S_TEXT/UTF8
Codec ID/Info : UTF-8 Plain Text
Duration : 2 h 0 min
Bit rate : 74 b/s
Frame rate : 0.183 FPS
Count of elements : 1318
Stream size : 65.4 KiB (0%)
Title : Full
Language : Russian
Default : No
Forced : No
Text #2
ID : 6
Format : UTF-8
Codec ID : S_TEXT/UTF8
Codec ID/Info : UTF-8 Plain Text
Duration : 2 h 0 min
Bit rate : 72 b/s
Frame rate : 0.183 FPS
Count of elements : 1323
Stream size : 63.5 KiB (0%)
Title : Full
Language : Ukrainian
Default : No
Forced : No
Text #3
ID : 7
Format : UTF-8
Codec ID : S_TEXT/UTF8
Codec ID/Info : UTF-8 Plain Text
Duration : 2 h 0 min
Bit rate : 63 b/s
Frame rate : 0.255 FPS
Count of elements : 1845
Stream size : 56.1 KiB (0%)
Title : SDH
Language : English
Default : No
Forced : No
Text #4
ID : 8
Format : UTF-8
Codec ID : S_TEXT/UTF8
Codec ID/Info : UTF-8 Plain Text
Duration : 2 h 0 min
Bit rate : 46 b/s
Frame rate : 0.182 FPS
Count of elements : 1313
Stream size : 41.1 KiB (0%)
Title : Full
Language : French
Default : No
Forced : No
Menu
00:00:00.000 : en:Studio Logo
00:00:27.000 : en:Scene 2
00:03:08.000 : en:Scene 3
00:04:41.000 : en:Scene 4
00:05:37.000 : en:Scene 5
00:05:54.000 : en:Scene 6
00:07:46.000 : en:Scene 7
00:08:55.000 : en:Scene 8
00:09:11.000 : en:Scene 9
00:09:16.000 : en:Scene 10
00:11:32.000 : en:Scene 11
00:13:58.000 : en:Scene 12
00:16:37.000 : en:Scene 13
00:17:48.000 : en:Scene 14
00:17:54.000 : en:Scene 15
00:20:19.000 : en:Scene 16
00:21:20.000 : en:Scene 17
00:24:21.000 : en:Scene 18
00:25:20.000 : en:Scene 19
00:28:31.000 : en:Scene 20
00:29:38.000 : en:Scene 21
00:33:21.000 : en:Scene 22
00:36:18.000 : en:Scene 23
00:37:43.000 : en:Scene 24
00:41:00.000 : en:Scene 25
00:41:37.000 : en:Scene 26
00:45:54.000 : en:Scene 27
00:49:19.000 : en:Scene 28
00:50:21.000 : en:Scene 29
00:52:46.000 : en:Scene 30
00:54:37.000 : en:Scene 31
00:57:04.000 : en:Scene 32
00:58:23.000 : en:Scene 33
01:00:18.000 : en:Scene 34
01:02:15.000 : en:Scene 35
01:02:21.000 : en:Scene 36
01:04:41.000 : en:Scene 37
01:07:13.000 : en:Scene 38
01:08:40.000 : en:Scene 39
01:11:24.000 : en:Scene 40
01:12:28.000 : en:Scene 41
01:15:12.000 : en:Scene 42
01:18:16.000 : en:Scene 43
01:20:30.000 : en:Scene 44
01:22:05.000 : en:Scene 45
01:24:10.000 : en:Scene 46
01:24:26.000 : en:Scene 47
01:24:33.000 : en:Scene 48
01:26:46.000 : en:Scene 49
01:28:35.000 : en:Scene 50
01:30:49.000 : en:Scene 51
01:30:57.000 : en:Scene 52
01:32:44.000 : en:Scene 53
01:33:44.000 : en:Scene 54
01:35:50.000 : en:Scene 55
01:37:39.000 : en:Scene 56
01:39:45.000 : en:Scene 57
01:41:02.000 : en:Scene 58
01:42:48.000 : en:Scene 59
01:43:42.000 : en:Scene 60
01:49:43.000 : en:Scene 61
01:50:57.000 : en:Scene 62
01:51:13.000 : en:Scene 63
01:51:18.000 : en:Scene 64
01:51:28.000 : en:Scene 65
01:51:37.000 : en:Scene 66
01:51:44.000 : en:Scene 67
01:51:57.000 : en:Scene 68
01:52:06.000 : en:Scene 69
01:52:13.000 : en:End Credits
01:54:39.000 : en:Title Sequence
01:54:48.000 : en:End Credits
Скриншоты:
Все одноименные релизы в КлубеВремя раздачи: как минимум до появления первых 3-5 скачавших, 24/7 (мультитрекерная раздача)
[Профиль] [ЛС]
Показать сообщения:    
Ответить на тему

Текущее время: 17-Апр 15:29

Часовой пояс: UTC ± 0



Вы не можете начинать темы
Вы не можете отвечать на сообщения
Вы не можете редактировать свои сообщения
Вы не можете удалять свои сообщения
Вы не можете голосовать в опросах
Вы не можете прикреплять файлы к сообщениям
Вы не можете скачивать файлы

[  Время выполнения: 0,026 сек  |  MySQL: 0,003 сек (10%) · 3 запр.  |  GZIP выкл  |  Память: 422,49 KB / 1,74 MB / 1,37 MB  |  Лимит: 14 15 12  ]