Последняя дуэль / The Last Duel (2021) WEB-DLRip [H.264/1080p-LQ] [Line, AD]

Ответить на тему
 
Автор Сообщение

admin ®

Пол: Не указан

Стаж: 6 месяца 22 дня

Сообщений: 11520

Создавать темы 30-Янв-2024 14:49

[Цитировать]

Последняя дуэль / The Last Duel (2021) WEB-DLRip [H.264/1080p-LQ]- Производство: США, Великобритания, 20th Century Studios, Pearl Street Films, Scott Free Productions, TSG Entertainment
Жанр: История, драма
Режиссер: Ридли Скотт
Продюсер: Бен Аффлек, Мэдисон Эйнли, Мэтт Дэймон
Актеры: Мэтт Дэймон, Адам Драйвер, Джоди Комер, Харриет Уолтер, Бен Аффлек, Алекс Лоутер, Мартон Чокаш, Уильям Хьюстон, Оливер Коттон, Орельен Лорнье
Описание:
Нормандский рыцарь Жан де Карруж по возвращении с войны узнаёт, что его сосед и соперник Жак Ле Гри изнасиловал его жену Маргарит. Однако у Ле Гри обнаружились сильные союзники, словам женщины никто не верит, и Карруж обращается за помощью лично к королю Франции Карлу VI. Заслушав все свидетельства, король постановил, что конфликт должен быть разрешён в честном поединке. От исхода битвы зависит судьба не только Ле Гри и Карружа, но и жены последнего. В случае поражения мужа её должны сжечь на костре за ложные обвинения.
Возраст: 18+ (зрителям, достигшим 18 лет. запрещено для детей)
Рейтинг MPAA: R (лицам до 17 лет обязательно присутствие взрослого)
Дата мировой премьеры: 10 сентября 2021,
Дата российской премьеры: 18 ноября 2021, «Дисней Студиос»
Продолжительность: 02:31:45
Качество видео: WEB-DLRip
Перевод: Дублированный (Line)
Субтитры: Отсутствуют
Реклама: Присутствуют баннер
Видео: AVC/H.264, 1920x800, 3289 Kbps, 23.976 fps
Аудио: АС3, 2 ch, 48 kHz, 384 Kbps | Русский

MediaInfo:

Общее
Полное имя : D:\Последняя.дуэль.2021.WEB-DLRip.[1080p].Soft-Torrent - торрент игры программы фильмы книги скачать.mkv
Формат : Matroska
Версия формата : Version 2
Размер файла : 3,97 Гбайт
Продолжительность : 2 ч. 31 м.
Общий поток : 3748 Кбит/сек
Программа кодирования : libmatroska 1.4.1
Библиотека кодирования : SolveigMM Matroska Muxer Version 1.0.2010.29
Видео
Идентификатор : 1
Формат : AVC
Формат/Информация : Advanced Video Codec
Профиль формата : High@L4.1
Настройки формата : CABAC / 4 Ref Frames
Параметр CABAC формата : Да
Параметр RefFrames формата : 4 кадра
Идентификатор кодека : V_MPEG4/ISO/AVC
Продолжительность : 2 ч. 31 м.
Битрейт : 3289 Кбит/сек
Ширина : 1920 пикселей
Высота : 800 пикселей
Соотношение сторон : 2,40:1
Режим частоты кадров : Постоянный
Частота кадров : 23,976 кадра/сек
Цветовое пространство : YUV
Субдискретизация насыщенности : 4:2:0
Битовая глубина : 8 бит
Тип развёртки : Прогрессивная
Бит/(Пиксели*Кадры) : 0.089
Размер потока : 3,49 Гбайт (88%)
Язык : English
Default : Да
Forced : Нет
Аудио
Идентификатор : 2
Формат : AC-3
Формат/Информация : Audio Coding 3
Коммерческое название : Dolby Digital
Идентификатор кодека : A_AC3
Продолжительность : 2 ч. 31 м.
Вид битрейта : Постоянный
Битрейт : 384 Кбит/сек
Каналы : 2 канала
ChannelLayout : L R
Частота : 48,0 КГц
Частота кадров : 31,250 кадров/сек (1536 SPF)
Битовая глубина : 16 бит
Метод сжатия : С потерями
Задержка видео : 11 мс.
Размер потока : 417 Мбайт (10%)
Язык : Russian
ServiceKind/String : Complete Main
Default : Да
Forced : Нет
Скриншоты:
Все одноименные релизы в КлубеВремя раздачи: 24/7 (минимум до появления первых 3-5 скачавших)
[Профиль] [ЛС]
Показать сообщения:    
Ответить на тему

Текущее время: 20-Апр 19:24

Часовой пояс: UTC ± 0



Вы не можете начинать темы
Вы не можете отвечать на сообщения
Вы не можете редактировать свои сообщения
Вы не можете удалять свои сообщения
Вы не можете голосовать в опросах
Вы не можете прикреплять файлы к сообщениям
Вы не можете скачивать файлы

[  Время выполнения: 0,043 сек  |  MySQL: 0,004 сек (9%) · 3 запр.  |  GZIP выкл  |  Память: 422,29 KB / 1,74 MB / 1,34 MB  |  Лимит: 4 6 9  ]