Последняя дуэль / The Last Duel (2021) WEB-DLRip [Line, AD]

Ответить на тему
 
Автор Сообщение

admin ®

Пол: Не указан

Стаж: 5 месяца

Сообщений: 10110

Создавать темы 30-Янв-2024 14:49

[Цитировать]

Последняя дуэль / The Last Duel (2021) WEB-DLRip - Производство: США, Великобритания, 20th Century Studios, Pearl Street Films, Scott Free Productions, TSG Entertainment
Жанр: История, драма
Режиссер: Ридли Скотт
Актеры: Мэтт Дэймон, Адам Драйвер, Джоди Комер, Харриет Уолтер, Бен Аффлек, Алекс Лоутер, Мартон Чокаш, Уильям Хьюстон, Оливер Коттон, Орельен Лорнье
Описание:
Конец XIV века. Нормандский рыцарь Жан де Карруж возвращается из Парижа и узнаёт, что его сосед и соратник Жак Ле Гри изнасиловал его жену Маргарит. Однако у Ле Гри обнаружились сильные союзники, словам женщины никто не верит, поэтому оскорблённый Карруж обращается за помощью лично к королю Франции Карлу VI. Заслушав все свидетельства, король постановил, что конфликт должен быть разрешён в честном поединке. От исхода дуэли зависит судьба не только Ле Гри и Карружа, но и жены последнего — в случае поражения мужа её должны сжечь на костре за ложные обвинения.
Возраст: 18+ (зрителям, достигшим 18 лет. запрещено для детей)
Рейтинг MPAA: R (лицам до 17 лет обязательно присутствие взрослого)
Дата мировой премьеры: 10 сентября 2021
Дата российской премьеры: 18 ноября 2021, «Дисней Студиос»
Продолжительность: 02:32:33
Качество видео: WEB-DLRip
Перевод: Дублированный (Чистый звук)
Язык озвучки: Русский
Субтитры: Отсутствуют
Реклама: Присутствуют аудио и видео вставки рекламы + баннер !
Видео: Xvid, 720x304, ~1660 kbps
Аудио: AC3, 2 ch, 256 kbps

MediaInfo:

General
Complete name : D:\ЗАКАЧКИ с ТОРРЕНТОВ\Последняя.дуэль.2021.Д.WEB-DLRip.avi
Format : AVI
Format/Info : Audio Video Interleave
Format profile : OpenDML
File size : 2.05 GiB
Duration : 2 h 32 min
Overall bit rate : 1 928 kb/s
Writing application : VirtualDubMod 1.5.10.3 | www.virtualdub-fr.org || (build 2550/release)
Writing library : VirtualDubMod build 2550/release
Video
ID : 0
Format : MPEG-4 Visual
Format profile : Advanced Simple@L5
Format settings : BVOP2 / Custom Matrix
Format settings, BVOP : 2
Format settings, QPel : No
Format settings, GMC : No warppoints
Format settings, Matrix : Custom
Codec ID : XVID
Codec ID/Hint : XviD
Duration : 2 h 32 min
Bit rate : 1 660 kb/s
Width : 720 pixels
Height : 304 pixels
Display aspect ratio : 2.35:1
Frame rate : 23.976 (24000/1001) FPS
Color space : YUV
Chroma subsampling : 4:2:0
Bit depth : 8 bits
Scan type : Progressive
Compression mode : Lossy
Bits/(Pixel*Frame) : 0.316
Stream size : 1.77 GiB (86%)
Writing library : XviD 1.2.1 (UTC 2008-12-04)
Audio
ID : 1
Format : AC-3
Format/Info : Audio Coding 3
Commercial name : Dolby Digital
Codec ID : 2000
Duration : 2 h 32 min
Bit rate mode : Constant
Bit rate : 256 kb/s
Channel(s) : 2 channels
Channel layout : L R
Sampling rate : 48.0 kHz
Frame rate : 31.250 FPS (1536 SPF)
Compression mode : Lossy
Stream size : 279 MiB (13%)
Alignment : Split across interleaves
Interleave, duration : 42 ms (1.00 video frame)
Interleave, preload duratio : 500 ms
Service kind : Complete Main
Скриншоты:
Все одноименные релизы в КлубеВремя раздачи: 24/7 (минимум до появления первых 3-5 скачавших)
[Профиль] [ЛС]
Показать сообщения:    
Ответить на тему

Текущее время: 28-Фев 22:48

Часовой пояс: UTC ± 0



Вы не можете начинать темы
Вы не можете отвечать на сообщения
Вы не можете редактировать свои сообщения
Вы не можете удалять свои сообщения
Вы не можете голосовать в опросах
Вы не можете прикреплять файлы к сообщениям
Вы не можете скачивать файлы

[  Время выполнения: 0,029 сек  |  MySQL: 0,004 сек (14%) · 3 запр.  |  GZIP выкл  |  Память: 422,29 KB / 1,72 MB / 1,32 MB  |  Лимит: 9 10 11  ]