Шан-Чи и легенда десяти колец / Shang-Chi and the Legend of the Ten Rings (2021) BDRip [H.264/1080p-LQ] [Line, AD]

Ответить на тему
 
Автор Сообщение

admin ®

Пол: Не указан

Стаж: 4 месяца 27 дня

Сообщений: 10110

Создавать темы 30-Янв-2024 14:49

[Цитировать]

Шан-Чи и легенда десяти колец / Shang-Chi and the Legend of the Ten Rings (2021) BDRip- Производство: США, Австралия, Walt Disney Pictures, Marvel Studios Inc., Fox Studios Australia
Жанр: фантастика, фэнтези, боевик, приключения
Режиссер: Дестин Дэниел Креттон
Продюсер: Виктория Алонсо, Луис Д’Эспозито, Кевин Файги
Актеры: Симу Лю, Тони Люн Чу Вай, Аквафина, Мишель Йео, Чжан Мэнъэр, Чэнь Фала, Ронни Чиэн, Флориан Мунтяну, Юэнь Ва, Энди Ле
Описание:
Мастеру боевых искусств Шан-Чи предстоит противостоять призракам из собственного прошлого, по мере того как его втягивают в паутину интриг таинственной организации «Десять колец».
Возраст: 16+ (зрителям, достигшим 16 лет)
Рейтинг MPAA: PG-13 (детям до 13 лет просмотр нежелателен)
Дата мировой премьеры: 16 августа 2021
Дата премьеры в России: 2 сентября 2021, «Дисней Студиос» IMAX 3D

Продолжительность: 02:12:13
Качество видео: BDRip
Перевод: Дублированный (Line)
Субтитры: Отсутствуют
Реклама: Присутствует баннер!
Видео: AVC/H.264, 1920x804, 4498 Kbps, 23.976 fps
Аудио: АС3, 2 ch, 48 kHz, 384 Kbps | Русский

MediaInfo:

Общее
Уникальный идентификатор : 238575843030933889177256106513742709693 (0xB37C0937F4BADF85A60D59C2FB1043BD)
Полное имя : D:\Шан-Чи.и.легенда.десяти.колец.2021.BDRip.[1080p].Soft-Torrent - торрент игры программы фильмы книги скачать.mkv
Формат : Matroska
Версия формата : Version 4
Размер файла : 4,51 Гбайт
Продолжительность : 2 ч. 12 м.
Общий поток : 4884 Кбит/сек
Название фильма : Шан-Чи.и.легенда.десяти.колец.2021.BDRip.[1080p].Soft-Torrent - торрент игры программы фильмы книги скачать
Дата кодирования : UTC 2021-11-10 11:15:29
Программа кодирования : mkvmerge v8.3.0 ('Over the Horizon') 64bit
Библиотека кодирования : libebml v1.3.1 + libmatroska v1.4.2
Видео
Идентификатор : 1
Формат : AVC
Формат/Информация : Advanced Video Codec
Профиль формата : High@L4.1
Настройки формата : CABAC / 4 Ref Frames
Параметр CABAC формата : Да
Параметр RefFrames формата : 4 кадра
Идентификатор кодека : V_MPEG4/ISO/AVC
Продолжительность : 2 ч. 12 м.
Битрейт : 4498 Кбит/сек
Ширина : 1920 пикселей
Высота : 804 пикселя
Соотношение сторон : 2,40:1
Режим частоты кадров : Постоянный
Частота кадров : 23,976 кадра/сек
Цветовое пространство : YUV
Субдискретизация насыщенности : 4:2:0
Битовая глубина : 8 бит
Тип развёртки : Прогрессивная
Бит/(Пиксели*Кадры) : 0.122
Размер потока : 4,15 Гбайт (92%)
Язык : English
Default : Да
Forced : Нет
Аудио
Идентификатор : 2
Формат : AC-3
Формат/Информация : Audio Coding 3
Коммерческое название : Dolby Digital
Идентификатор кодека : A_AC3
Продолжительность : 2 ч. 12 м.
Вид битрейта : Постоянный
Битрейт : 384 Кбит/сек
Каналы : 2 канала
ChannelLayout : L R
Частота : 48,0 КГц
Частота кадров : 31,250 кадров/сек (1536 SPF)
Битовая глубина : 16 бит
Метод сжатия : С потерями
Задержка видео : 11 мс.
Размер потока : 363 Мбайт (8%)
Язык : Russian
ServiceKind/String : Complete Main
Default : Да
Forced : Нет
Скриншоты:
Все одноименные релизы в КлубеВремя раздачи: 24/7 (минимум до появления первых 3-5 скачавших)
[Профиль] [ЛС]
Показать сообщения:    
Ответить на тему

Текущее время: 25-Фев 22:11

Часовой пояс: UTC ± 0



Вы не можете начинать темы
Вы не можете отвечать на сообщения
Вы не можете редактировать свои сообщения
Вы не можете удалять свои сообщения
Вы не можете голосовать в опросах
Вы не можете прикреплять файлы к сообщениям
Вы не можете скачивать файлы

[  Время выполнения: 0,032 сек  |  MySQL: 0,004 сек (13%) · 3 запр.  |  GZIP выкл  |  Память: 422,29 KB / 1,72 MB / 1,32 MB  |  Лимит: 14 16 17  ]