Шан-Чи и легенда десяти колец / Shang-Chi and the Legend of the Ten Rings (2021) HDRip [Line, AD]

Ответить на тему
 
Автор Сообщение

admin ®

Пол: Не указан

Стаж: 4 месяца 27 дня

Сообщений: 10110

Создавать темы 30-Янв-2024 14:48

[Цитировать]

Шан-Чи и легенда десяти колец / Shang-Chi and the Legend of the Ten Rings (2021) HDRip [Line, AD] - Производство: США, Австралия, Walt Disney Pictures, Marvel Studios Inc., Fox Studios Australia
Жанр: фантастика, фэнтези, боевик, приключения
Режиссер: Дестин Дэниел Креттон
Продюсер: Виктория Алонсо, Луис Д’Эспозито, Кевин Файги
Актеры: Симу Лю, Тони Люн Чу Вай, Аквафина, Мишель Йео, Чжан Мэнъэр, Чэнь Фала, Ронни Чиэн, Флориан Мунтяну, Юэнь Ва, Энди Ле
Описание:
Мастеру боевых искусств Шан-Чи предстоит противостоять призракам из собственного прошлого, по мере того как его втягивают в паутину интриг таинственной организации «Десять колец».
Возраст: 16+ (зрителям, достигшим 16 лет)
Рейтинг MPAA: PG-13 (детям до 13 лет просмотр нежелателен)
Дата мировой премьеры: 16 августа 2021
Дата премьеры в России: 2 сентября 2021, «Дисней Студиос» IMAX 3D

Релиз от: Anrif
Продолжительность: 02:05:08
Качество видео: HDRip
Перевод: Дублированный (Line)
Язык озвучки: Русский
Субтитры: Русские (харсаб и на китайскую речь)
Реклама: Присутствует баннер!
Видео: XviD, 560x232, 1218 Kbps
Аудио: АС3, 2 ch, 256 Kbps - Русский

MediaInfo:

Общее
Полное имя : F:\[Anf].Shang-Chi.and.the.Legend.of.the.Ten.Ring.(2021).HDRip+Sub.avi
Формат : AVI
Формат/Информация : Audio Video Interleave
Размер файла : 1,30 Гбайт
Продолжительность : 2 ч. 5 м.
Общий поток : 1 483 Кбит/сек
Программа кодирования : VirtualDubMod 1.5.10.3 | www.virtualdub-fr.org || (build 2550/release)
Библиотека кодирования : VirtualDubMod build 2550/release
Видео
Идентификатор : 0
Формат : MPEG-4 Visual
Профиль формата : Advanced Simple@L5
Настройки формата : BVOP1
Параметр BVOP формата : 1
Параметр QPel формата : Нет
Параметр GMC формата : Без точки перехода
Параметр матрицы формата : Default (MPEG)
Идентификатор кодека : XVID
Идентификатор кодека/Подсказка : XviD
Продолжительность : 2 ч. 5 м.
Битрейт : 1 218 Кбит/сек
Ширина : 560 пикселей
Высота : 232 пикселя
Соотношение сторон : 2,40:1
Частота кадров : 23,976 (24000/1001) кадра/сек
Цветовое пространство : YUV
Субдискретизация насыщенности : 4:2:0
Битовая глубина : 8 бит
Тип развёртки : Прогрессивная
Метод сжатия : С потерями
Бит/(Пиксели*Кадры) : 0.391
Размер потока : 1,06 Гбайт (82%)
Библиотека кодирования : XviD 73
Аудио
Идентификатор : 1
Формат : AC-3
Формат/Информация : Audio Coding 3
Коммерческое название : Dolby Digital
Идентификатор кодека : 2000
Продолжительность : 2 ч. 5 м.
Вид битрейта : Постоянный
Битрейт : 256 Кбит/сек
Каналы : 2 канала
Channel layout : L R
Частота : 48,0 КГц
Частота кадров : 31,250 кадров/сек (1536 SPF)
Метод сжатия : С потерями
Размер потока : 229 Мбайт (17%)
Выравнивание : Разделение по промежуткам
Продолжительность промежутка : 42 мс. (1,00 видеокадр)
Время предзагрузки промежутка : 500 мс.
Service kind : Complete Main
Скриншоты:

Дополнительные скриншоты:

Все одноименные релизы в КлубеВремя раздачи: 24/7 (минимум до появления первых 3-5 скачавших)
[Профиль] [ЛС]
Показать сообщения:    
Ответить на тему

Текущее время: 25-Фев 22:25

Часовой пояс: UTC ± 0



Вы не можете начинать темы
Вы не можете отвечать на сообщения
Вы не можете редактировать свои сообщения
Вы не можете удалять свои сообщения
Вы не можете голосовать в опросах
Вы не можете прикреплять файлы к сообщениям
Вы не можете скачивать файлы

[  Время выполнения: 0,043 сек  |  MySQL: 0,003 сек (8%) · 3 запр.  |  GZIP выкл  |  Память: 422,29 KB / 1,74 MB / 1,34 MB  |  Лимит: 9 10 13  ]