Помогите, я уменьшил своих друзей! / Hilfe, ich hab meine Freunde geschrumpft (2021) WEB-DLRip [H.264/1080p-LQ] [MVO] [AD]

Ответить на тему
 
Автор Сообщение

admin ®

Пол: Не указан

Стаж: 4 месяца 23 дня

Сообщений: 10110

Создавать темы 30-Янв-2024 14:47

[Цитировать]

Помогите, я уменьшил своих друзей! / Hilfe, ich hab meine Freunde geschrumpft (2021) WEB-DLRip [H.264/1080p-LQ]- Производство: Германия / Blue Eyes Fiction, Potemkino Port
Жанр: фэнтези, комедия, приключения, семейный
Режиссер: Гранц Хенман
Актеры: Оскар Кеймер, Андреа Завацки, Аня Клинг, Аксель Штайн, Джулия Хартманн, Элой Крист, Козима Хенман, Лина Хускер, Михаэль Островский, Тобиаш Шефер
Описание:
В школе имени Отто Леонарда появилась новенькая ученица, Мелани — милая, веселая, хотя и немного наивная. Девушка сразу приглянулась Феликсу, к большому раздражению Эллы и их компании — им кажется, что именно Мелани причастна к мелким кражам, которые участились в школе после ее появления. Но когда из-за них почти срывается свидание Феликса и Мелани, это становится последней каплей, и подросток решает проучить друзей, уменьшив их в десять раз. И после исчезновения Мелани вместе с магическим шаром, героям становится не до шуток. Неужели она действительно замешана во всем этом?
Возраст: 6+ (зрителям, достигшим 6 лет)
Дата мировой премьеры: 2 сентября 2021
Дата премьеры в России: 24 февраля 2022

Продолжительность: 01:36:47
Качество видео: WEB-DLRip
Перевод: Многоголосый любительский (MUZOBOZ)
Субтитры: Отсутствуют
Реклама: Присутствует баннер.
Видео: AVC/H.264, 1920x800, ~8750 Kbps
Аудио: AC3, 2 ch, 384 Kbps

MediaInfo:

Общее
Полное имя : C:\NNM\Помогите, я уменьшил своих друзей\Ich.hab.meine.Freunde.geschrumpft.2021.WEB-DLRip.1080p-LQ.mkv
Формат : Matroska
Версия формата : Version 2
Размер файла : 6,30 Гбайт
Продолжительность : 1 ч. 36 м.
Режим общего битрейта : Переменный
Общий поток : 9 319 Кбит/сек
Программа кодирования : libmatroska 1.4.1
Библиотека кодирования : SolveigMM Matroska Muxer Version 1.0.1904.23
Видео
Идентификатор : 1
Формат : AVC
Формат/Информация : Advanced Video Codec
Профиль формата : High@L4.1
Настройки формата : CABAC / 4 Ref Frames
Параметр CABAC формата : Да
Параметр RefFrames формата : 4 кадра
Идентификатор кодека : V_MPEG4/ISO/AVC
Продолжительность : 1 ч. 36 м.
Вид битрейта : Переменный
Битрейт : 8 750 Кбит/сек
Номинальный битрейт : 10 000 Кбит/сек
Максимальный битрейт : 10 000 Кбит/сек
Ширина : 1 920 пикселей
Высота : 800 пикселей
Соотношение сторон : 2,40:1
Режим частоты кадров : Постоянный
Частота кадров : 23,976 (24000/1001) кадра/сек
Стандарт вещания : Component
Цветовое пространство : YUV
Субдискретизация насыщенности : 4:2:0
Битовая глубина : 8 бит
Тип развёртки : Прогрессивная
Бит/(Пиксели*Кадры) : 0.238
Размер потока : 5,92 Гбайт (94%)
Default : Нет
Forced : Нет
Цветовой диапазон : Limited
Основные цвета : BT.709
Характеристики трансфера : BT.709
Коэффициенты матрицы : BT.709
Аудио
Идентификатор : 2
Формат : AC-3
Формат/Информация : Audio Coding 3
Коммерческое название : Dolby Digital
Идентификатор кодека : A_AC3
Продолжительность : 1 ч. 36 м.
Вид битрейта : Постоянный
Битрейт : 384 Кбит/сек
Каналы : 2 канала
Channel layout : L R
Частота : 48,0 КГц
Частота кадров : 31,250 кадров/сек (1536 SPF)
Метод сжатия : С потерями
Размер потока : 266 Мбайт (4%)
Язык : Russian
Service kind : Complete Main
Default : Нет
Forced : Нет
Скриншоты: Все одноименные релизы в КлубеВремя раздачи: 24/7 (до 10-ти скачавших)
[Профиль] [ЛС]
Показать сообщения:    
Ответить на тему

Текущее время: 22-Фев 01:10

Часовой пояс: UTC ± 0



Вы не можете начинать темы
Вы не можете отвечать на сообщения
Вы не можете редактировать свои сообщения
Вы не можете удалять свои сообщения
Вы не можете голосовать в опросах
Вы не можете прикреплять файлы к сообщениям
Вы не можете скачивать файлы

[  Время выполнения: 0,038 сек  |  MySQL: 0,005 сек (12%) · 5 запр.  |  GZIP выкл  |  Память: 421,85 KB / 1,73 MB / 1,34 MB  |  Лимит: 19 19 19  ]