Помогите, я уменьшил своих друзей! / Hilfe, ich hab meine Freunde geschrumpft (2021) WEB-DLRip [MVO] [AD]

Ответить на тему
 
Автор Сообщение

admin ®

Пол: Не указан

Стаж: 5 месяца

Сообщений: 10110

Создавать темы 30-Янв-2024 14:47

[Цитировать]

Помогите, я уменьшил своих друзей! / Hilfe, ich hab meine Freunde geschrumpft (2021) WEB-DLRip- Производство: Германия / Blue Eyes Fiction, Potemkino Port
Жанр: фэнтези, комедия, приключения, семейный
Режиссер: Гранц Хенман
Актеры: Оскар Кеймер, Андреа Завацки, Аня Клинг, Аксель Штайн, Джулия Хартманн, Элой Крист, Козима Хенман, Лина Хускер, Михаэль Островский, Тобиаш Шефер
Описание:
В школе имени Отто Леонарда появилась новенькая ученица, Мелани — милая, веселая, хотя и немного наивная. Девушка сразу приглянулась Феликсу, к большому раздражению Эллы и их компании — им кажется, что именно Мелани причастна к мелким кражам, которые участились в школе после ее появления. Но когда из-за них почти срывается свидание Феликса и Мелани, это становится последней каплей, и подросток решает проучить друзей, уменьшив их в десять раз. И после исчезновения Мелани вместе с магическим шаром, героям становится не до шуток. Неужели она действительно замешана во всем этом?
Возраст: 6+ (зрителям, достигшим 6 лет)
Дата мировой премьеры: 2 сентября 2021
Дата премьеры в России: 24 февраля 2022

Продолжительность: 01:36:47
Качество видео: WEB-DLRip
Перевод: Многоголосый любительский (MUZOBOZ)
Субтитры: Отсутствуют
Реклама: Присутствует баннер.
Видео: XviD, 720x304, ~1891 Kbps
Аудио: AC-3, 2 ch, 256 Kbps

MediaInfo:

Общее
Полное имя : C:\NNM\Помогите, я уменьшил своих друзей\Ich.hab.meine.Freunde.geschrumpft.2021.WEB-DLRip.avi
Формат : AVI
Формат/Информация : Audio Video Interleave
Размер файла : 1,46 Гбайт
Продолжительность : 1 ч. 36 м.
Общий поток : 2 156 Кбит/сек
Программа кодирования : VirtualDubMod 1.5.10.3 | www.virtualdub-fr.org || (build 2550/release)
Библиотека кодирования : VirtualDubMod build 2550/release
Видео
Идентификатор : 0
Формат : MPEG-4 Visual
Профиль формата : Advanced Simple@L5
Настройки формата : BVOP1 / Custom Matrix
Параметр BVOP формата : 1
Параметр QPel формата : Нет
Параметр GMC формата : Без точки перехода
Параметр матрицы формата : Выборочная
Идентификатор кодека : XVID
Идентификатор кодека/Подсказка : XviD
Продолжительность : 1 ч. 36 м.
Битрейт : 1 891 Кбит/сек
Ширина : 720 пикселей
Высота : 304 пикселя
Соотношение сторон : 2,35:1
Частота кадров : 23,976 (24000/1001) кадра/сек
Цветовое пространство : YUV
Субдискретизация насыщенности : 4:2:0
Битовая глубина : 8 бит
Тип развёртки : Прогрессивная
Метод сжатия : С потерями
Бит/(Пиксели*Кадры) : 0.360
Размер потока : 1,28 Гбайт (88%)
Библиотека кодирования : XviD 73
Аудио
Идентификатор : 1
Формат : AC-3
Формат/Информация : Audio Coding 3
Коммерческое название : Dolby Digital
Идентификатор кодека : 2000
Продолжительность : 1 ч. 36 м.
Вид битрейта : Постоянный
Битрейт : 256 Кбит/сек
Каналы : 2 канала
Channel layout : L R
Частота : 48,0 КГц
Частота кадров : 31,250 кадров/сек (1536 SPF)
Метод сжатия : С потерями
Размер потока : 177 Мбайт (12%)
Выравнивание : Разделение по промежуткам
Продолжительность промежутка : 42 мс. (1,00 видеокадр)
Время предзагрузки промежутка : 500 мс.
Service kind : Complete Main
Скриншоты: Все одноименные релизы в КлубеВремя раздачи: 24/7 (до 10-ти скачавших)
[Профиль] [ЛС]
Показать сообщения:    
Ответить на тему

Текущее время: 28-Фев 23:00

Часовой пояс: UTC ± 0



Вы не можете начинать темы
Вы не можете отвечать на сообщения
Вы не можете редактировать свои сообщения
Вы не можете удалять свои сообщения
Вы не можете голосовать в опросах
Вы не можете прикреплять файлы к сообщениям
Вы не можете скачивать файлы

[  Время выполнения: 0,028 сек  |  MySQL: 0,003 сек (10%) · 3 запр.  |  GZIP выкл  |  Память: 422,29 KB / 1,72 MB / 1,32 MB  |  Лимит: 10 9 10  ]