Вечеринка «Кому за 30» / Былые деньки / Later Days (2021) WEB-DLRip [H.264/1080p-LQ] [MVO] [AD]

Ответить на тему
 
Автор Сообщение

admin ®

Пол: Не указан

Стаж: 4 месяца 23 дня

Сообщений: 10110

Создавать темы 30-Янв-2024 14:46

[Цитировать]

Вечеринка «Кому за 30» / Былые деньки / Later Days (2021) WEB-DLRip [H.264/1080p-LQ] - Производство: США / RedFire Films, Wry Mash Media
Жанр: комедия
Режиссер: Брэд Ридделл, Санфорд Стерншейн
Актеры: Дэвид Уолтон, Махандра Дельфино, Лиза Зейн, Дэвид Паскуэзи, Тим Казурински, Френсис Гуинан, Робин Соффин, Мэтт Трюдо, Helen Joo Lee
Описание:
Ностальгирующий по дням школьной славы, разочарованный отец-домосед решает пригласить всех своих школьных друзей не вечеринку в стиле 80-хх., которую устраивает для своей уставшей от работы жены.
Дата мировой премьеры: 20 марта 2021
Продолжительность: 01:29:04
Качество видео: WEB-DLRip
Перевод: Многоголосый любительский (AlphaProject)
Субтитры: Отсутствуют
Реклама: Присутствует баннер.
Видео: AVC/H.264, 1920x952, ~6803 Kbps
Аудио: AC3, 2 ch, 384 Kbps

MediaInfo:

Общее
Полное имя : C:\NNM\Былые деньки\Later.Days.2021.WEB-DLRip.1080p-LQ.mkv
Формат : Matroska
Версия формата : Version 2
Размер файла : 4,56 Гбайт
Продолжительность : 1 ч. 29 м.
Режим общего битрейта : Переменный
Общий поток : 7 333 Кбит/сек
Программа кодирования : libmatroska 1.4.1
Библиотека кодирования : SolveigMM Matroska Muxer Version 1.0.1904.23
Видео
Идентификатор : 1
Формат : AVC
Формат/Информация : Advanced Video Codec
Профиль формата : High@L4.1
Настройки формата : CABAC / 4 Ref Frames
Параметр CABAC формата : Да
Параметр RefFrames формата : 4 кадра
Идентификатор кодека : V_MPEG4/ISO/AVC
Продолжительность : 1 ч. 29 м.
Вид битрейта : Переменный
Битрейт : 6 803 Кбит/сек
Максимальный битрейт : 8 000 Кбит/сек
Ширина : 1 920 пикселей
Высота : 952 пикселя
Соотношение сторон : 2,017
Режим частоты кадров : Постоянный
Частота кадров : 23,976 (24000/1001) кадра/сек
Стандарт вещания : Component
Цветовое пространство : YUV
Субдискретизация насыщенности : 4:2:0
Битовая глубина : 8 бит
Тип развёртки : Прогрессивная
Бит/(Пиксели*Кадры) : 0.155
Размер потока : 4,23 Гбайт (93%)
Default : Нет
Forced : Нет
Цветовой диапазон : Limited
Основные цвета : BT.709
Характеристики трансфера : BT.709
Коэффициенты матрицы : BT.709
Аудио
Идентификатор : 2
Формат : AC-3
Формат/Информация : Audio Coding 3
Коммерческое название : Dolby Digital
Идентификатор кодека : A_AC3
Продолжительность : 1 ч. 29 м.
Вид битрейта : Постоянный
Битрейт : 384 Кбит/сек
Каналы : 2 канала
Channel layout : L R
Частота : 48,0 КГц
Частота кадров : 31,250 кадров/сек (1536 SPF)
Метод сжатия : С потерями
Размер потока : 245 Мбайт (5%)
Язык : Russian
Service kind : Complete Main
Default : Нет
Forced : Нет
Скриншоты: Все одноименные релизы в КлубеВремя раздачи: 24/7 (до 10-ти скачавших)
[Профиль] [ЛС]
Показать сообщения:    
Ответить на тему

Текущее время: 22-Фев 01:23

Часовой пояс: UTC ± 0



Вы не можете начинать темы
Вы не можете отвечать на сообщения
Вы не можете редактировать свои сообщения
Вы не можете удалять свои сообщения
Вы не можете голосовать в опросах
Вы не можете прикреплять файлы к сообщениям
Вы не можете скачивать файлы

[  Время выполнения: 0,034 сек  |  MySQL: 0,002 сек (7%) · 3 запр.  |  GZIP выкл  |  Память: 421,85 KB / 1,73 MB / 1,34 MB  |  Лимит: 19 19 19  ]