Веном 2 / Venom: Let There Be Carnage (2021) WEB-DLRip [H.264] [Line, AD]

Ответить на тему
 
Автор Сообщение

admin ®

Пол: Не указан

Стаж: 4 месяца 27 дня

Сообщений: 10110

Создавать темы 30-Янв-2024 14:46

[Цитировать]

Веном 2 / Venom: Let There Be Carnage (2021) WEB-DLRip- Производство: США, Marvel Entertainment, Pascal Pictures, Sony Pictures Entertainment (SPE)
Жанр: боевик, фантастика, ужасы, приключения
Режиссер: Энди Серкис
Продюсер: Ави Арад, Джонатан Кавендиш, Чэнь Хунвэй
Актеры: Том Харди, Вуди Харрельсон, Мишель Уильямс, Рейд Скотт, Наоми Харрис, Стивен Грэм, Пегги Лу, Шон Делани, Лоуренс Спеллман, Рэйчел Хэндшоу
Описание:
Более чем через год после тех событий журналист Эдди Брок пытается приспособиться к жизни в качестве хозяина инопланетного симбиота Венома, который наделяет его сверхчеловеческими способностями. Брок пытается возродить свою карьеру и берет интервью у серийного убийцы Клетуса Касади, который по воле случая становится хозяином Карнажа и сбегает из тюрьмы после неудавшейся казни.
[imdb]https://www.imdb.com/title/tt7097896[/imdb]
Возраст: 16+ (зрителям, достигшим 16 лет)
Рейтинг MPAA: PG-13 (детям до 13 лет просмотр нежелателен)
Дата мировой премьеры: 14 сентября 2021
Дата российской премьеры: 30 сентября 2021, «СППР»
Продолжительность: 01:36:20
Качество видео: WEB-DLRip
Перевод: Дублированный (Line)
Субтитры: Отсутствуют
Реклама: Присутствует баннер
Видео: AVC, 718х404, 1664 kbps
Аудио: MP3, 2 ch, 320 kbps

MediaInfo:

Общее
Полное имя : D:\Веном.2.2021.WEB-DLRip.Soft-Torrent - торрент игры программы фильмы книги скачать.mkv
Формат : Matroska
Версия формата : Version 2
Размер файла : 1,36 Гбайт
Продолжительность : 1 ч. 36 м.
Режим общего битрейта : Постоянный
Общий поток : 2025 Кбит/сек
Программа кодирования : libmatroska 1.4.1
Библиотека кодирования : SolveigMM Matroska Muxer Version 1.0.2010.29
Видео
Идентификатор : 1
Формат : AVC
Формат/Информация : Advanced Video Codec
Профиль формата : Main@L3
Настройки формата : CABAC / 1 Ref Frames
Параметр CABAC формата : Да
Параметр RefFrames формата : 1 кадр
Параметр GOP формата : M=1, N=25
Идентификатор кодека : V_MPEG4/ISO/AVC
Продолжительность : 1 ч. 36 м.
Вид битрейта : Постоянный
Битрейт : 1664 Кбит/сек
Номинальный битрейт : 1780 Кбит/сек
Ширина : 718 пикселей
Высота : 404 пикселя
Соотношение сторон : 16:9
Соотношение сторон в оригинале : 16:9
Режим частоты кадров : Постоянный
Частота кадров : 29,970 (30000/1001) кадров/сек
Цветовое пространство : YUV
Субдискретизация насыщенности : 4:2:0
Битовая глубина : 8 бит
Тип развёртки : Прогрессивная
Бит/(Пиксели*Кадры) : 0.191
Размер потока : 1,12 Гбайт (82%)
Язык : English
Default : Да
Forced : Нет
Аудио
Идентификатор : 2
Формат : MPEG Audio
Версия формата : Version 1
Профиль формата : Layer 3
Настройки формата : Joint stereo
Идентификатор кодека : A_MPEG/L3
Идентификатор кодека/Подсказка : MP3
Продолжительность : 1 ч. 36 м.
Вид битрейта : Постоянный
Битрейт : 320 Кбит/сек
Каналы : 2 канала
Частота : 44,1 КГц
Метод сжатия : С потерями
Задержка видео : 16 мс.
Размер потока : 221 Мбайт (16%)
Библиотека кодирования : LAME3.99.5ªªªÍ1­ðÒv
Язык : Russian
Default : Да
Forced : Нет
Скриншоты:
Все одноименные релизы в КлубеВремя раздачи: 24/7 (минимум до появления первых 3-5 скачавших)
[Профиль] [ЛС]
Показать сообщения:    
Ответить на тему

Текущее время: 25-Фев 23:01

Часовой пояс: UTC ± 0



Вы не можете начинать темы
Вы не можете отвечать на сообщения
Вы не можете редактировать свои сообщения
Вы не можете удалять свои сообщения
Вы не можете голосовать в опросах
Вы не можете прикреплять файлы к сообщениям
Вы не можете скачивать файлы

[  Время выполнения: 0,039 сек  |  MySQL: 0,003 сек (8%) · 3 запр.  |  GZIP выкл  |  Память: 422,29 KB / 1,74 MB / 1,34 MB  |  Лимит: 12 9 9  ]