Одни дома / Pups Alone (2021) WEB-DLRip [MVO] [AD]

Ответить на тему
 
Автор Сообщение

admin ®

Пол: Не указан

Стаж: 4 месяца 23 дня

Сообщений: 10110

Создавать темы 30-Янв-2024 14:45

[Цитировать]

Одни дома / Pups Alone (2021) WEB-DLRip- Производство: США / Boundless Pictures, Firebrand
Жанр: комедия, семейный
Режиссер: Алекс Меркин
Актеры: Дольф Лундгрен, Роб Шнайдер, Эрик Робертс, Тайлер Холлингер, Айседора Суонн, Джерри О Коннелл, Дженнифер Лав Хьюитт, Дэнни Трехо, Малкольм МакДауэлл, Марлон Янг ...
Описание:
Роберт уезжает на горнолыжный курорт, и, пока дом пустует, сосед нанимает двух не очень умелых воров, чтобы они выкрали последнее изобретение учёного. Соседские собаки собираются вместе, чтобы защитить дом Роберта от нарушителей, и вооружаются его гаджетами, чтобы противостоять ворам.
Рейтинг MPAA: PG (рекомендуется присутствие родителей)
Дата мировой премьеры: 24 июня 2021
Дата премьеры в России: 27 января 2022

Продолжительность: 01:44:19
Качество видео: WEB-DLRip
Перевод: Многоголосый любительский (MUZOBOZ)
Субтитры: Отсутствуют
Реклама: Присутствует баннер.
Видео: XviD, 720x400, ~1543 Kbps
Аудио: AC-3, 2 ch, 256 Kbps

MediaInfo:

Общее
Полное имя : C:\NNM\Одни дома\Pups.Alone.2021.WEB-DLRip.avi
Формат : AVI
Формат/Информация : Audio Video Interleave
Профиль формата : OpenDML
Размер файла : 1,32 Гбайт
Продолжительность : 1 ч. 44 м.
Общий поток : 1 811 Кбит/сек
Видео
Идентификатор : 0
Формат : MPEG-4 Visual
Профиль формата : Advanced Simple@L5
Настройки формата : BVOP2 / Custom Matrix
Параметр BVOP формата : 2
Параметр QPel формата : Нет
Параметр GMC формата : Без точки перехода
Параметр матрицы формата : Выборочная
Идентификатор кодека : XVID
Идентификатор кодека/Подсказка : XviD
Продолжительность : 1 ч. 44 м.
Битрейт : 1 543 Кбит/сек
Ширина : 720 пикселей
Высота : 400 пикселей
Соотношение сторон : 16:9
Частота кадров : 23,976 (24000/1001) кадра/сек
Цветовое пространство : YUV
Субдискретизация насыщенности : 4:2:0
Битовая глубина : 8 бит
Тип развёртки : Прогрессивная
Метод сжатия : С потерями
Бит/(Пиксели*Кадры) : 0.223
Размер потока : 1,12 Гбайт (85%)
Библиотека кодирования : XviD 1.2.1 (UTC 2008-12-04)
Аудио
Идентификатор : 1
Формат : AC-3
Формат/Информация : Audio Coding 3
Коммерческое название : Dolby Digital
Идентификатор кодека : 2000
Продолжительность : 1 ч. 44 м.
Вид битрейта : Постоянный
Битрейт : 256 Кбит/сек
Каналы : 2 канала
Channel layout : L R
Частота : 48,0 КГц
Частота кадров : 31,250 кадров/сек (1536 SPF)
Метод сжатия : С потерями
Размер потока : 191 Мбайт (14%)
Выравнивание : Соединение по промежуткам
Продолжительность промежутка : 32 мс. (0,77 видеокадр)
Время предзагрузки промежутка : 2720 мс.
Service kind : Complete Main
Скриншоты: Все одноименные релизы в КлубеВремя раздачи: 24/7 (до 10-ти скачавших)
[Профиль] [ЛС]
Показать сообщения:    
Ответить на тему

Текущее время: 22-Фев 01:06

Часовой пояс: UTC ± 0



Вы не можете начинать темы
Вы не можете отвечать на сообщения
Вы не можете редактировать свои сообщения
Вы не можете удалять свои сообщения
Вы не можете голосовать в опросах
Вы не можете прикреплять файлы к сообщениям
Вы не можете скачивать файлы

[  Время выполнения: 0,030 сек  |  MySQL: 0,003 сек (10%) · 3 запр.  |  GZIP выкл  |  Память: 421,85 KB / 1,73 MB / 1,34 MB  |  Лимит: 20 19 19  ]