Стендап / Stand Up (2021) WEBRip [H.264/720p-LQ] [MVO] [AD]

Ответить на тему
 
Автор Сообщение

admin ®

Пол: Не указан

Стаж: 4 месяца 27 дня

Сообщений: 10110

Создавать темы 30-Янв-2024 14:43

[Цитировать]

Стендап / Stand Up (2021) WEBRip [H.264/720p-LQ]- Производство: Германия / Jacobsproductions
Жанр: комедия
Режиссер: Тимо Джейкобс
Актеры: Тимо Джейкобс, Пега Феридони, Алина Левшин, Дитер Ландурис, Рольф Канис, Фридрих Лихтенштайн, Мануэль Майрхофер, Анна-Мари Вальдек, Мирон Цовнир, Энтони Арндт
Описание:
Перспективная карьера комика Чарли идёт совсем не по плану. Вдобавок, его любимая жена отдаляется и попадает в автомобильную аварию. Но неужели для него всё кончено? Ответом станет выступление на площадке "Стенд Ап".
Дата мировой премьеры: 7 апреля 2021
Продолжительность: 01:27:22
Качество видео: WEBRip
Перевод: Многоголосый профессиональный (Синема УС)
Субтитры: Английские (хардсаб)
Реклама: Присутствует баннер.
Видео: AVC/H.264, 1280x536, ~5179 Kbps
Аудио: AC-3, 2 ch, 256 Kbps

MediaInfo:

Общее
Полное имя : D:\NNM\Стенд Ап\Stand.Up.2021.WEBRip.720p-LQ.mkv
Формат : Matroska
Версия формата : Version 2
Размер файла : 3,38 Гбайт
Продолжительность : 1 ч. 27 м.
Режим общего битрейта : Переменный
Общий поток : 5 545 Кбит/сек
Программа кодирования : libmatroska 1.4.1
Библиотека кодирования : SolveigMM Matroska Muxer Version 1.0.1904.23
Видео
Идентификатор : 1
Формат : AVC
Формат/Информация : Advanced Video Codec
Профиль формата : High@L4.1
Настройки формата : CABAC / 4 Ref Frames
Параметр CABAC формата : Да
Параметр RefFrames формата : 4 кадра
Идентификатор кодека : V_MPEG4/ISO/AVC
Продолжительность : 1 ч. 27 м.
Вид битрейта : Переменный
Битрейт : 5 179 Кбит/сек
Номинальный битрейт : 6 000 Кбит/сек
Максимальный битрейт : 6 000 Кбит/сек
Ширина : 1 280 пикселей
Высота : 536 пикселей
Соотношение сторон : 2,40:1
Режим частоты кадров : Постоянный
Частота кадров : 23,976 (24000/1001) кадра/сек
Стандарт вещания : Component
Цветовое пространство : YUV
Субдискретизация насыщенности : 4:2:0
Битовая глубина : 8 бит
Тип развёртки : Прогрессивная
Бит/(Пиксели*Кадры) : 0.315
Размер потока : 3,16 Гбайт (93%)
Default : Нет
Forced : Нет
Цветовой диапазон : Limited
Основные цвета : BT.709
Характеристики трансфера : BT.709
Коэффициенты матрицы : BT.709
Аудио
Идентификатор : 2
Формат : AC-3
Формат/Информация : Audio Coding 3
Коммерческое название : Dolby Digital
Идентификатор кодека : A_AC3
Продолжительность : 1 ч. 27 м.
Вид битрейта : Постоянный
Битрейт : 256 Кбит/сек
Каналы : 2 канала
Channel layout : L R
Частота : 48,0 КГц
Частота кадров : 31,250 кадров/сек (1536 SPF)
Метод сжатия : С потерями
Размер потока : 160 Мбайт (5%)
Язык : Russian
Service kind : Complete Main
Default : Нет
Forced : Нет
Скриншоты: Все одноименные релизы в КлубеВремя раздачи: 24/7 (до 10-ти скачавших)
[Профиль] [ЛС]
Показать сообщения:    
Ответить на тему

Текущее время: 25-Фев 19:35

Часовой пояс: UTC ± 0



Вы не можете начинать темы
Вы не можете отвечать на сообщения
Вы не можете редактировать свои сообщения
Вы не можете удалять свои сообщения
Вы не можете голосовать в опросах
Вы не можете прикреплять файлы к сообщениям
Вы не можете скачивать файлы

[  Время выполнения: 0,031 сек  |  MySQL: 0,004 сек (12%) · 5 запр.  |  GZIP выкл  |  Память: 422,29 KB / 1,72 MB / 1,32 MB  |  Лимит: 8 9 12  ]