Пылающий мир / The Blazing World (2021) WEB-DLRip [H.264/1080p-LQ] [MVO] [AD]

Ответить на тему
 
Автор Сообщение

admin ®

Пол: Не указан

Стаж: 7 месяца 26 дня

Сообщений: 11520

Создавать темы 30-Янв-2024 14:43

[Цитировать]

Пылающий мир / The Blazing World (2021) WEB-DLRip [H.264/1080p-LQ]- Производство: США / Greenbelt Films, Tealhouse Entertainment, American Stream Wave
Жанр: ужасы, фантастика, фэнтези, триллер, мелодрама, комедия, приключения
Режиссер: Карлсон Янг
Актеры: Карлсон Янг, Удо Кир, Дермот Малруни, Винесса Шоу, Джон Карна, Стефани Соколински, Лиз Микель, София Бернард, Джози Финк, Лилли Финк
Описание:
С шести лет Маргрет преследуют воспоминания о том, как ее сестра тонет во время ссоры между их родителями. И даже повзрослев, она не может оставить всё позади, и наоборот, все глубже погружается в свою извращенную внутреннюю жизнь и в конечном итоге оказывается на грани самоубийства. Пройдя эпическое путешествие по самым дымным и страшным коридорам своего воображения, она пытается изгнать своих внутренних демонов, что подталкивают ее все ближе и ближе к краю.
Дата мировой премьеры: 31 января 2021
Продолжительность: 01:39:00
Качество видео: WEB-DLRip
Перевод: Многоголосый любительский (AlphaProject)
Субтитры: Отсутствуют
Реклама: Присутствует баннер.
Видео: AVC/H.264, 1908x860, ~9541 Kbps
Аудио: AC3, 2 ch, 384 Kbps

MediaInfo:

Общее
Полное имя : D:\NNM\Пылающий мир\The.Blazing.World.2021.WEB-DLRip.1080p-LQ.mkv
Формат : Matroska
Версия формата : Version 2
Размер файла : 7,00 Гбайт
Продолжительность : 1 ч. 39 м.
Режим общего битрейта : Переменный
Общий поток : 10,1 Мбит/сек
Программа кодирования : libmatroska 1.4.1
Библиотека кодирования : SolveigMM Matroska Muxer Version 1.0.1904.23
Видео
Идентификатор : 1
Формат : AVC
Формат/Информация : Advanced Video Codec
Профиль формата : High@L4.1
Настройки формата : CABAC / 4 Ref Frames
Параметр CABAC формата : Да
Параметр RefFrames формата : 4 кадра
Идентификатор кодека : V_MPEG4/ISO/AVC
Продолжительность : 1 ч. 39 м.
Вид битрейта : Переменный
Битрейт : 9 541 Кбит/сек
Номинальный битрейт : 11,0 Мбит/сек
Максимальный битрейт : 11,0 Мбит/сек
Ширина : 1 908 пикселей
Высота : 860 пикселей
Соотношение сторон : 2,2:1
Режим частоты кадров : Постоянный
Частота кадров : 23,976 (24000/1001) кадра/сек
Стандарт вещания : Component
Цветовое пространство : YUV
Субдискретизация насыщенности : 4:2:0
Битовая глубина : 8 бит
Тип развёртки : Прогрессивная
Бит/(Пиксели*Кадры) : 0.243
Размер потока : 6,60 Гбайт (94%)
Default : Нет
Forced : Нет
Цветовой диапазон : Limited
Основные цвета : BT.709
Характеристики трансфера : BT.709
Коэффициенты матрицы : BT.709
Аудио
Идентификатор : 2
Формат : AC-3
Формат/Информация : Audio Coding 3
Коммерческое название : Dolby Digital
Идентификатор кодека : A_AC3
Продолжительность : 1 ч. 39 м.
Вид битрейта : Постоянный
Битрейт : 384 Кбит/сек
Каналы : 2 канала
Channel layout : L R
Частота : 48,0 КГц
Частота кадров : 31,250 кадров/сек (1536 SPF)
Метод сжатия : С потерями
Размер потока : 272 Мбайт (4%)
Язык : Russian
Service kind : Complete Main
Default : Нет
Forced : Нет
Скриншоты: Все одноименные релизы в КлубеВремя раздачи: 24/7 (до первых 3-5 скачавших)
[Профиль] [ЛС]
Показать сообщения:    
Ответить на тему

Текущее время: 24-Май 12:50

Часовой пояс: UTC ± 0



Вы не можете начинать темы
Вы не можете отвечать на сообщения
Вы не можете редактировать свои сообщения
Вы не можете удалять свои сообщения
Вы не можете голосовать в опросах
Вы не можете прикреплять файлы к сообщениям
Вы не можете скачивать файлы

[  Время выполнения: 0,042 сек  |  MySQL: 0,004 сек (11%) · 3 запр.  |  GZIP выкл  |  Память: 422,29 KB / 1,74 MB / 1,34 MB  |  Лимит: 8 7 7  ]