Хороший, плохой, коп / Copshop (2021) WEB-DLRip [Line, AD]

Ответить на тему
 
Автор Сообщение

admin ®

Пол: Не указан

Стаж: 4 месяца 23 дня

Сообщений: 10110

Создавать темы 30-Янв-2024 14:43

[Цитировать]

Хороший, плохой, коп / Copshop (2021) WEB-DLRip - Производство: США / G-BASE, Raven Capital Management, Sculptor Media, WarParty Films, Zero Gravity Management
Жанр: боевик, триллер, криминал
Режиссер: Джо Карнахан
Актеры: Джерард Батлер, Фрэнк Грилло, Алексис Лодер, Тоби Хасс, Тейт Флетчер, Райан О Нан, Кит Джардин, Каиви Лайман, Армида Лопес, Маршалл Кук
Описание:
Небольшой городок в Неваде. Во время разгона свадебной драки молодая полицейская Валери Янг получает по лицу от заезжего хлыща. Только его определяют за решётку в местный полицейский участок, как в дежурных копов на пустынной дороге чуть не врезается на машине какой-то пьянчуга. Его сажают в другую камеру, и он оказался тут неспроста. Скоро прежде тихий полицейский участок станет местом жестокого противостояния, а Валери придётся принимать непростые решения.
[imdb]https://www.imdb.com/title/tt5748448/[/imdb]
Возраст: 18+ (зрителям, достигшим 18 лет. запрещено для детей)
Рейтинг MPAA: R (лицам до 17 лет обязательно присутствие взрослого)
Дата мировой премьеры: 9 сентября 2021
Дата российской премьеры: 21 октября 2021, «MEGOGO Distribution»
Продолжительность: 01:48:57
Качество видео: WEB-DLRip
Перевод: Дублированный (Чистый звук)
Язык озвучки: Русский
Субтитры: Русские (forced hardsub)
Реклама: Присутствуют аудио и видео вставки рекламы + баннер !
Видео: Xvid, 720x304, ~1531 kbps
Аудио: AC3, 2 ch, 256 kbps

MediaInfo:

General
Complete name : D:\ЗАКАЧКИ с ТОРРЕНТОВ\Хороший.плохой.коп.2021.Дчз.WEB-DLRip.avi
Format : AVI
Format/Info : Audio Video Interleave
File size : 1.37 GiB
Duration : 1 h 48 min
Overall bit rate : 1 796 kb/s
Writing application : VirtualDubMod 1.5.10.3 | www.virtualdub-fr.org || (build 2550/release)
Writing library : VirtualDubMod build 2550/release
Video
ID : 0
Format : MPEG-4 Visual
Format profile : Advanced Simple@L5
Format settings : BVOP2 / Custom Matrix
Format settings, BVOP : 2
Format settings, QPel : No
Format settings, GMC : No warppoints
Format settings, Matrix : Custom
Codec ID : XVID
Codec ID/Hint : XviD
Duration : 1 h 48 min
Bit rate : 1 531 kb/s
Width : 720 pixels
Height : 304 pixels
Display aspect ratio : 2.35:1
Frame rate : 23.976 (24000/1001) FPS
Color space : YUV
Chroma subsampling : 4:2:0
Bit depth : 8 bits
Scan type : Progressive
Compression mode : Lossy
Bits/(Pixel*Frame) : 0.292
Stream size : 1.16 GiB (85%)
Writing library : XviD 1.2.1 (UTC 2008-12-04)
Audio
ID : 1
Format : AC-3
Format/Info : Audio Coding 3
Commercial name : Dolby Digital
Codec ID : 2000
Duration : 1 h 48 min
Bit rate mode : Constant
Bit rate : 256 kb/s
Channel(s) : 2 channels
Channel layout : L R
Sampling rate : 48.0 kHz
Frame rate : 31.250 FPS (1536 SPF)
Compression mode : Lossy
Stream size : 200 MiB (14%)
Alignment : Split across interleaves
Interleave, duration : 42 ms (1.00 video frame)
Interleave, preload duratio : 500 ms
Service kind : Complete Main
Скриншоты:

Дополнительные скриншоты:

Все одноименные релизы в КлубеВремя раздачи: 24/7 (минимум до появления первых 3-5 скачавших)
[Профиль] [ЛС]
Показать сообщения:    
Ответить на тему

Текущее время: 22-Фев 00:59

Часовой пояс: UTC ± 0



Вы не можете начинать темы
Вы не можете отвечать на сообщения
Вы не можете редактировать свои сообщения
Вы не можете удалять свои сообщения
Вы не можете голосовать в опросах
Вы не можете прикреплять файлы к сообщениям
Вы не можете скачивать файлы

[  Время выполнения: 0,048 сек  |  MySQL: 0,003 сек (5%) · 3 запр.  |  GZIP выкл  |  Память: 421,85 KB / 1,73 MB / 1,34 MB  |  Лимит: 20 20 18  ]