Плавучий маяк / Lightships (2021) WEB-DLRip [H.264/720p-LQ] [MVO] [AD]

Ответить на тему
 
Автор Сообщение

admin ®

Пол: Не указан

Стаж: 4 месяца 23 дня

Сообщений: 10110

Создавать темы 30-Янв-2024 14:42

[Цитировать]

Плавучий маяк / Lightships (2021) WEB-DLRip [H.264/720p-LQ]- Производство: США / Foolish, People, GHRL
Жанр: фантастика
Режиссер: John Harrigan
Актеры: Лоис Темель, Люси Харриган, Усифу Джаллох, Джон Харриган, Дэвид Аллард, Тереза Каменика, Итан-Джеймс Харриган
Описание:
Ева просыпается в странном здании, похожем на больницу. Не помня, как, почему и когда она была госпитализирована, она присоединяется к группе пациентов, которые искренне верят в необходимость и эффективность местного лечения и с энтузиазмом посещают загадочную комнату, где каждому из них выдаются инструкции, которым они должны следовать, чтобы излечиться. Персонал в больнице отсутствует, однако каждый пациент боится покинуть больницу из-за страха, что его болезнь может навредить близким и всему миру. Ева находит свой дневник и начинает вспоминать ужасные события, которые привели её к болезни. Всё происходящее кажется ей таким нереальным, что она начинает задаваться вопросом - кто она здесь? Пленница? Пациентка? А может она и вовсе мертва?
Дата мировой премьеры: 3 июля 2021
Продолжительность: 01:39:02
Качество видео: WEB-DLRip
Перевод: Многоголосый профессиональный (Синема УС)
Субтитры: Отсутствуют
Реклама: Присутствует баннер.
Видео: AVC/H.264, 1280x536, ~4942 Kbps
Аудио: AC-3, 2 ch, 384 Kbps

MediaInfo:

Общее
Полное имя : C:\NNM\Плавучий маяк\Lightships.2021.WEB-DLRip.720p-LQ.mkv
Формат : Matroska
Версия формата : Version 2
Размер файла : 3,76 Гбайт
Продолжительность : 1 ч. 39 м.
Режим общего битрейта : Переменный
Общий поток : 5 434 Кбит/сек
Программа кодирования : libmatroska 1.4.1
Библиотека кодирования : SolveigMM Matroska Muxer Version 1.0.1904.23
Видео
Идентификатор : 1
Формат : AVC
Формат/Информация : Advanced Video Codec
Профиль формата : High@L4.1
Настройки формата : CABAC / 4 Ref Frames
Параметр CABAC формата : Да
Параметр RefFrames формата : 4 кадра
Идентификатор кодека : V_MPEG4/ISO/AVC
Продолжительность : 1 ч. 39 м.
Вид битрейта : Переменный
Битрейт : 4 942 Кбит/сек
Максимальный битрейт : 6 000 Кбит/сек
Ширина : 1 280 пикселей
Высота : 536 пикселей
Соотношение сторон : 2,40:1
Режим частоты кадров : Постоянный
Частота кадров : 23,976 (24000/1001) кадра/сек
Стандарт вещания : Component
Цветовое пространство : YUV
Субдискретизация насыщенности : 4:2:0
Битовая глубина : 8 бит
Тип развёртки : Прогрессивная
Бит/(Пиксели*Кадры) : 0.300
Размер потока : 3,42 Гбайт (91%)
Default : Нет
Forced : Нет
Цветовой диапазон : Limited
Основные цвета : BT.709
Характеристики трансфера : BT.709
Коэффициенты матрицы : BT.709
Аудио
Идентификатор : 2
Формат : AC-3
Формат/Информация : Audio Coding 3
Коммерческое название : Dolby Digital
Идентификатор кодека : A_AC3
Продолжительность : 1 ч. 39 м.
Вид битрейта : Постоянный
Битрейт : 384 Кбит/сек
Каналы : 2 канала
Channel layout : L R
Частота : 48,0 КГц
Частота кадров : 31,250 кадров/сек (1536 SPF)
Метод сжатия : С потерями
Размер потока : 272 Мбайт (7%)
Язык : Russian
Service kind : Complete Main
Default : Нет
Forced : Нет
Скриншоты: Все одноименные релизы в КлубеВремя раздачи: 24/7 (до 10-ти скачавших)
[Профиль] [ЛС]
Показать сообщения:    
Ответить на тему

Текущее время: 22-Фев 01:57

Часовой пояс: UTC ± 0



Вы не можете начинать темы
Вы не можете отвечать на сообщения
Вы не можете редактировать свои сообщения
Вы не можете удалять свои сообщения
Вы не можете голосовать в опросах
Вы не можете прикреплять файлы к сообщениям
Вы не можете скачивать файлы

[  Время выполнения: 0,039 сек  |  MySQL: 0,003 сек (9%) · 3 запр.  |  GZIP выкл  |  Память: 421,85 KB / 1,73 MB / 1,34 MB  |  Лимит: 10 10 13  ]