Секс, ложь и убийство / Deadly Seduction (Sex Lies And Murder) (2021) WEBRip [H.264/720p-LQ] [MVO] [AD]

Ответить на тему
 
Автор Сообщение

admin ®

Пол: Не указан

Стаж: 4 месяца 27 дня

Сообщений: 10110

Создавать темы 30-Янв-2024 14:42

[Цитировать]

Секс, ложь и убийство / Deadly Seduction (Sex Lies And Murder) (2021) WEBRip [H.264/720p-LQ]- Производство: США / K5ive Media, Robbins Entertainment
Жанр: триллер, драма
Режиссер: Том Шелл
Актеры: Линдсэй Корман, Эндрю Роджерс, Кэти Келли, Брукс Райан, Дрю Поллок, Тодд Дженкинс, Хизер Линн Харрис, Коллин Элизабет Миллер, Брайс Барфилд, Рейнада Робинсон
Описание:
В возрасте пятнадцати лет Маргарет чудом смогла вырваться из лап серийного убийцы, носившего прозвище Мясник из Ист-Бэй. Это событие стало причиной, по которой она решила связать свою жизнь с криминалистикой и получила степень по судебной психологии. Маргарет Борган является признанным экспертом в своей области и как никто другой разбирается в том как работает разум серийных убийц. Спустя много лет после тех трагических событий у Мясника из Ист-Бэй появляется подражатель. Мэгги предстоит заново окунуться в своё прошлое, чтобы найти в нём причины, заставившие преступника выйти на охоту.
Дата мировой премьеры: 3 октября 2021
Продолжительность: 01:30:22
Качество видео: WEBRip
Перевод: Многоголосый профессиональный (Синема УС)
Субтитры: Отсутствуют
Реклама: Присутствует баннер.
Видео: AVC/H.264, 1280x720, ~5261 Kbps
Аудио: AC3, 2 ch, 384 Kbps

MediaInfo:

Общее
Полное имя : C:\NNM\Секс, ложь и убийство\Sex.Lies.and.Murder.2021.WEB-DLRip.720p-LQ.mkv
Формат : Matroska
Версия формата : Version 2
Размер файла : 3,64 Гбайт
Продолжительность : 1 ч. 30 м.
Режим общего битрейта : Переменный
Общий поток : 5 760 Кбит/сек
Программа кодирования : libmatroska 1.4.1
Библиотека кодирования : SolveigMM Matroska Muxer Version 1.0.1904.23
Видео
Идентификатор : 1
Формат : AVC
Формат/Информация : Advanced Video Codec
Профиль формата : High@L4.1
Настройки формата : CABAC / 4 Ref Frames
Параметр CABAC формата : Да
Параметр RefFrames формата : 4 кадра
Идентификатор кодека : V_MPEG4/ISO/AVC
Продолжительность : 1 ч. 30 м.
Вид битрейта : Переменный
Битрейт : 5 261 Кбит/сек
Номинальный битрейт : 6 000 Кбит/сек
Максимальный битрейт : 6 000 Кбит/сек
Ширина : 1 280 пикселей
Высота : 720 пикселей
Соотношение сторон : 16:9
Режим частоты кадров : Постоянный
Частота кадров : 23,976 (24000/1001) кадра/сек
Стандарт вещания : Component
Цветовое пространство : YUV
Субдискретизация насыщенности : 4:2:0
Битовая глубина : 8 бит
Тип развёртки : Прогрессивная
Бит/(Пиксели*Кадры) : 0.238
Размер потока : 3,32 Гбайт (91%)
Default : Нет
Forced : Нет
Цветовой диапазон : Limited
Основные цвета : BT.709
Характеристики трансфера : BT.709
Коэффициенты матрицы : BT.709
Аудио
Идентификатор : 2
Формат : AC-3
Формат/Информация : Audio Coding 3
Коммерческое название : Dolby Digital
Идентификатор кодека : A_AC3
Продолжительность : 1 ч. 30 м.
Вид битрейта : Постоянный
Битрейт : 384 Кбит/сек
Каналы : 2 канала
Channel layout : L R
Частота : 48,0 КГц
Частота кадров : 31,250 кадров/сек (1536 SPF)
Метод сжатия : С потерями
Размер потока : 248 Мбайт (7%)
Язык : Russian
Service kind : Complete Main
Default : Нет
Forced : Нет
Скриншоты: Все одноименные релизы в КлубеВремя раздачи: 24/7 (до 10-ти скачавших)
[Профиль] [ЛС]
Показать сообщения:    
Ответить на тему

Текущее время: 25-Фев 21:03

Часовой пояс: UTC ± 0



Вы не можете начинать темы
Вы не можете отвечать на сообщения
Вы не можете редактировать свои сообщения
Вы не можете удалять свои сообщения
Вы не можете голосовать в опросах
Вы не можете прикреплять файлы к сообщениям
Вы не можете скачивать файлы

[  Время выполнения: 0,037 сек  |  MySQL: 0,002 сек (6%) · 3 запр.  |  GZIP выкл  |  Память: 422,29 KB / 1,74 MB / 1,34 MB  |  Лимит: 14 11 11  ]