Дюна / Dune (2021) WEB-DLRip [H.264/720p-LQ] [Line, AD]

Ответить на тему
 
Автор Сообщение

admin ®

Пол: Не указан

Стаж: 5 месяца 1 день

Сообщений: 10110

Создавать темы 30-Янв-2024 14:39

[Цитировать]

Дюна / Dune (2021) WEB-DLRip - Производство: Венгрия, Канада, США / Legendary Pictures, Villeneuve Films, Warner Bros.
Жанр: фантастика, драма, приключения
Режиссер: Дени Вильнёв
Продюсер: Дени Вильнёв, Мэри Пэрент, Кейл Бойтер
Актеры: Тимоти Шаламе, Ребекка Фергюсон, Оскар Айзек, Джош Бролин, Джейсон Момоа, Зендея, Стеллан Скарсгард, Хавьер Бардем, Дэйв Батиста, Шарлотта Рэмплинг
Описание:
Наследник знаменитого дома Атрейдесов Пол отправляется вместе с семьей на одну из самых опасных планет во Вселенной — Арракис. Здесь нет ничего, кроме песка, палящего солнца, гигантских чудовищ и основной причины межгалактических конфликтов — невероятно ценного ресурса, который называется меланж. В результате захвата власти Пол вынужден бежать и скрываться, и это становится началом его эпического путешествия. Враждебный мир Арракиса приготовил для него множество тяжелых испытаний, но только тот, кто готов взглянуть в глаза своему страху, достоин стать избранным.
Возраст: 12+ (зрителям, достигшим 12 лет)
Рейтинг MPAA: PG-13 (детям до 13 лет просмотр нежелателен)
Дата мировой премьеры: 3 сентября 2021
Дата российской премьеры: 16 сентября 2021, «UPI» IMAX 3D
Релиз от: Anrif
Продолжительность: 02:27:59
Качество видео: WEB-DLRip
Перевод: Дублированный (Line)
Язык озвучки: Русский
Субтитры: Русские (хардсаб)
Реклама: Присутствует баннер!
Видео: AVC/H.264, 1280x520, 6348 kbps
Аудио: AС-3, 2 ch, 384 kbps - Русский

MediaInfo:

Общее
Уникальный идентификатор : 215409475332917957361685378887981433475 (0xA20E5B1B44D9618988E00DBD3FD38283)
Полное имя : F:\[Anf].Dune.(2021).WEB-DLRip.[720p-LQ].mkv
Формат : Matroska
Версия формата : Version 4
Размер файла : 6,96 Гбайт
Продолжительность : 2 ч. 27 м.
Режим общего битрейта : Переменный
Общий поток : 6 734 Кбит/сек
Название фильма : Dune_(2021)
Дата кодирования : UTC 2021-10-18 19:50:55
Программа кодирования : mkvmerge v10.0.0 ('To Drown In You') 64bit
Библиотека кодирования : libebml v1.3.4 + libmatroska v1.4.5
Обложка : Yes
Attachments : cover.jpg
Видео
Идентификатор : 1
Формат : AVC
Формат/Информация : Advanced Video Codec
Профиль формата : High@L4.1
Настройки формата : CABAC / 4 Ref Frames
Параметр CABAC формата : Да
Параметр RefFrames формата : 4 кадра
Идентификатор кодека : V_MPEG4/ISO/AVC
Продолжительность : 2 ч. 27 м.
Вид битрейта : Переменный
Битрейт : 6 348 Кбит/сек
Максимальный битрейт : 7 000 Кбит/сек
Ширина : 1 280 пикселей
Высота : 520 пикселей
Соотношение сторон : 2,462
Режим частоты кадров : Постоянный
Частота кадров : 23,976 (24000/1001) кадра/сек
Стандарт вещания : Component
Цветовое пространство : YUV
Субдискретизация насыщенности : 4:2:0
Битовая глубина : 8 бит
Тип развёртки : Прогрессивная
Бит/(Пиксели*Кадры) : 0.398
Размер потока : 6,56 Гбайт (94%)
Заголовок : Anrif
Язык : English
Default : Да
Forced : Нет
Цветовой диапазон : Limited
Основные цвета : BT.709
Характеристики трансфера : BT.709
Коэффициенты матрицы : BT.709
Аудио
Идентификатор : 2
Формат : AC-3
Формат/Информация : Audio Coding 3
Коммерческое название : Dolby Digital
Идентификатор кодека : A_AC3
Продолжительность : 2 ч. 27 м.
Вид битрейта : Постоянный
Битрейт : 384 Кбит/сек
Каналы : 2 канала
Channel layout : L R
Частота : 48,0 КГц
Частота кадров : 31,250 кадров/сек (1536 SPF)
Метод сжатия : С потерями
Задержка видео : 16 мс.
Размер потока : 406 Мбайт (6%)
Заголовок : (DUB, Line)
Язык : Russian
Service kind : Complete Main
Default : Да
Forced : Нет
Скриншоты: Все одноименные релизы в Клубе Время раздачи: с 18:00 до 24:00 (до первых 3-5 скачавших)
[Профиль] [ЛС]
Показать сообщения:    
Ответить на тему

Текущее время: 29-Фев 11:57

Часовой пояс: UTC ± 0



Вы не можете начинать темы
Вы не можете отвечать на сообщения
Вы не можете редактировать свои сообщения
Вы не можете удалять свои сообщения
Вы не можете голосовать в опросах
Вы не можете прикреплять файлы к сообщениям
Вы не можете скачивать файлы

[  Время выполнения: 0,040 сек  |  MySQL: 0,004 сек (10%) · 3 запр.  |  GZIP выкл  |  Память: 422,29 KB / 1,74 MB / 1,34 MB  |  Лимит: 7 8 9  ]