В западне / Till Death (2021) HDRip [Line, AD]

Ответить на тему
 
Автор Сообщение

admin ®

Пол: Не указан

Стаж: 5 месяца

Сообщений: 10110

Создавать темы 30-Янв-2024 14:37

[Цитировать]

В западне / Till Death (2021) HDRip - Производство: США / Millennium Media
Жанр: триллер
Режиссер: США / Millennium Media
Актеры: Меган Фокс, Оуэн Мэкен, Каллэн Мулвей, Джек Рот, Амл Амин, Стефани Рожко, Julian Balahurov, Лили Рич, Теодора Джурич
Описание:
Последнее испытание, которому подверг муж свою супругу, было убийство. Точнее — самоубийство. Но даже после гибели этого психопата вдова не обрела заслуженную свободу: прикованная к трупу своего мучителя в загородном доме она сталкивается с ужасными, заранее спланированными ловушками. Сможет ли Эмма выбраться из этого жуткого места живой, или же покойный супруг затянет ее за собой в ад?
[imdb]https://www.imdb.com/title/tt11804152/[/imdb]
Возраст: 18+ (зрителям, достигшим 18 лет. запрещено для детей)
Рейтинг MPAA: R (лицам до 17 лет обязательно присутствие взрослого)
Дата мировой премьеры: 2 июля 2021
Дата российской премьеры: 2 сентября 2021, «MEGOGO Distribution»
Продолжительность: 01:29:46
Качество видео: HDRip
Перевод: Дублированный (Чистый звук)
Язык озвучки: Русский
Субтитры: Отсутствуют
Реклама: Присутствует баннер
Видео: Xvid, 720x304, ~1615 kbps
Аудио: AC3, 2 ch, 384 kbps

MediaInfo:

General
Complete name : D:\ЗАКАЧКИ с ТОРРЕНТОВ\В.западне.2021.Дчз.BDRip.avi
Format : AVI
Format/Info : Audio Video Interleave
File size : 1.26 GiB
Duration : 1 h 29 min
Overall bit rate : 2 010 kb/s
Video
ID : 0
Format : MPEG-4 Visual
Format profile : Advanced Simple@L4
Format settings : BVOP2
Format settings, BVOP : 2
Format settings, QPel : No
Format settings, GMC : No warppoints
Format settings, Matrix : Default (MPEG)
Codec ID : XVID
Codec ID/Hint : XviD
Duration : 1 h 29 min
Bit rate : 1 615 kb/s
Width : 720 pixels
Height : 304 pixels
Display aspect ratio : 2.35:1
Frame rate : 23.976 (24000/1001) FPS
Color space : YUV
Chroma subsampling : 4:2:0
Bit depth : 8 bits
Scan type : Progressive
Compression mode : Lossy
Bits/(Pixel*Frame) : 0.308
Stream size : 1.01 GiB (80%)
Writing library : XviD 67
Audio
ID : 1
Format : AC-3
Format/Info : Audio Coding 3
Commercial name : Dolby Digital
Codec ID : 2000
Duration : 1 h 29 min
Bit rate mode : Constant
Bit rate : 384 kb/s
Channel(s) : 2 channels
Channel layout : L R
Sampling rate : 48.0 kHz
Frame rate : 31.250 FPS (1536 SPF)
Compression mode : Lossy
Stream size : 247 MiB (19%)
Alignment : Aligned on interleaves
Interleave, duration : 32 ms (0.77 video frame)
Service kind : Complete Main
Скриншоты:
Все одноименные релизы в КлубеВремя раздачи: 24/7 (минимум до появления первых 3-5 скачавших)
[Профиль] [ЛС]
Показать сообщения:    
Ответить на тему

Текущее время: 28-Фев 22:26

Часовой пояс: UTC ± 0



Вы не можете начинать темы
Вы не можете отвечать на сообщения
Вы не можете редактировать свои сообщения
Вы не можете удалять свои сообщения
Вы не можете голосовать в опросах
Вы не можете прикреплять файлы к сообщениям
Вы не можете скачивать файлы

[  Время выполнения: 0,035 сек  |  MySQL: 0,003 сек (9%) · 3 запр.  |  GZIP выкл  |  Память: 422,29 KB / 1,73 MB / 1,33 MB  |  Лимит: 10 12 16  ]