Печь / The Furnace (2020) WEB-DLRip [H.264/1080p-LQ] [MVO] [AD]

Ответить на тему
 
Автор Сообщение

admin ®

Пол: Не указан

Стаж: 5 месяца

Сообщений: 10110

Создавать темы 30-Янв-2024 14:37

[Цитировать]

Печь / The Furnace (2020) WEB-DLRip [H.264/1080p-LQ]- Производство: Австралия / Southern Light Films, The Koop, Meaning Maker
Жанр: триллер, драма, приключения, вестерн, история
Режиссер: Родерик МакКей
Актеры: Ahmed Malek, Байкали Ганамбарр, Каушик Дас, Noah Skape, Эндрю Хейл, Дэвид Уэнэм, Самсон Култер, Эрик Томсон, Джей Райан, Стив МакКолл
Описание:
1897 год. Западная Австралия. Чтобы избежать суровой жизни и вернуться домой, молодой афганский погонщик верблюдов объединился с таинственным бушменом с двумя золотыми слитками в 400 унций, отмеченными изображением короны. Вместе они должны перехитрить рьяного сержанта полиции и его солдат в гонке, чтобы добраться до секретной печи - единственного места, где они могут безопасно удалить знак короны...
Дата мировой премьеры: 4 сентября 2020
Продолжительность: 01:55:12
Качество видео: WEB-DLRip
Перевод: Многоголосый закадровый (Синема УС)
Субтитры: Отсутствуют
Реклама: Присутствует баннер
Видео: AVC/H.264, 1916x800, ~6860 Kbps
Аудио: AC3, 2 ch, 384 kbps

MediaInfo:

Общее
Полное имя : D:\NNM\Печь\The.Furnace.2020.WEB-DLRip.1080p-LQ.mkv
Формат : Matroska
Версия формата : Version 2
Размер файла : 5,95 Гбайт
Продолжительность : 1 ч. 55 м.
Режим общего битрейта : Переменный
Общий поток : 7 391 Кбит/сек
Программа кодирования : libmatroska 1.4.1
Библиотека кодирования : SolveigMM Matroska Muxer Version 1.0.1904.23
Видео
Идентификатор : 1
Формат : AVC
Формат/Информация : Advanced Video Codec
Профиль формата : High@L4.1
Настройки формата : CABAC / 4 Ref Frames
Параметр CABAC формата : Да
Параметр RefFrames формата : 4 кадра
Идентификатор кодека : V_MPEG4/ISO/AVC
Продолжительность : 1 ч. 55 м.
Вид битрейта : Переменный
Битрейт : 6 860 Кбит/сек
Номинальный битрейт : 8 000 Кбит/сек
Максимальный битрейт : 8 000 Кбит/сек
Ширина : 1 916 пикселей
Высота : 800 пикселей
Соотношение сторон : 2,40:1
Режим частоты кадров : Постоянный
Частота кадров : 23,976 (24000/1001) кадра/сек
Стандарт вещания : Component
Цветовое пространство : YUV
Субдискретизация насыщенности : 4:2:0
Битовая глубина : 8 бит
Тип развёртки : Прогрессивная
Бит/(Пиксели*Кадры) : 0.187
Размер потока : 5,52 Гбайт (93%)
Default : Нет
Forced : Нет
Цветовой диапазон : Limited
Основные цвета : BT.709
Характеристики трансфера : BT.709
Коэффициенты матрицы : BT.709
Аудио
Идентификатор : 2
Формат : AC-3
Формат/Информация : Audio Coding 3
Коммерческое название : Dolby Digital
Идентификатор кодека : A_AC3
Продолжительность : 1 ч. 55 м.
Вид битрейта : Постоянный
Битрейт : 384 Кбит/сек
Каналы : 2 канала
Channel layout : L R
Частота : 48,0 КГц
Частота кадров : 31,250 кадров/сек (1536 SPF)
Метод сжатия : С потерями
Размер потока : 316 Мбайт (5%)
Язык : Russian
Service kind : Complete Main
Default : Нет
Forced : Нет
Скриншоты: Все одноименные релизы в Клубе Время раздачи: 24/7 (до первых 10-ти скачавших)
[Профиль] [ЛС]
Показать сообщения:    
Ответить на тему

Текущее время: 28-Фев 22:40

Часовой пояс: UTC ± 0



Вы не можете начинать темы
Вы не можете отвечать на сообщения
Вы не можете редактировать свои сообщения
Вы не можете удалять свои сообщения
Вы не можете голосовать в опросах
Вы не можете прикреплять файлы к сообщениям
Вы не можете скачивать файлы

[  Время выполнения: 0,038 сек  |  MySQL: 0,004 сек (10%) · 5 запр.  |  GZIP выкл  |  Память: 422,29 KB / 1,73 MB / 1,34 MB  |  Лимит: 11 10 12  ]