Холодный расчет / The Card Counter (2021) WEB-DLRip [Line, AD]

Ответить на тему
 
Автор Сообщение

admin ®

Пол: Не указан

Стаж: 5 месяца

Сообщений: 10110

Создавать темы 30-Янв-2024 14:37

[Цитировать]

Холодный расчет / The Card Counter (2021) WEB-DLRip - Производство: Великобритания, США, Китай / Focus Features, LB Entertainment, Bona Film Group, Carte Blanche, Convergent Media, HanWay Films, Lucky 13 Productions
Жанр: боевик, триллер, драма, криминал
Режиссер: Пол Шредер
Актеры: Оскар Айзек, Тиффани Хэддиш, Тай Шеридан, Александр Бабара, Бобби С. Кинг, Екатерина Бэйкер, Брайан Труонг, Дилан Флэшнер, Эдриэнн Лау, Джоэль Майкли
Описание:
Главное в покере — сохранять хладнокровие и считать на несколько ходов вперёд. Именно этими навыками Уильям овладел в совершенстве, когда решил начать новую жизнь. Теперь он уверенно идет к участию в Мировой серии и большим деньгам, понимая, что это его возможность оставить позади тайны своего прошлого. Но когда судьба подкидывает ему шанс на возмездие, Уильям оказывается втянут в игру, где на кону стоит нечто большее, чем деньги.
[imdb]https://www.imdb.com/title/tt11196036[/imdb]
Возраст: 18+ (зрителям, достигшим 18 лет. запрещено для детей)
Рейтинг MPAA: R (лицам до 17 лет обязательно присутствие взрослого)
Дата мировой премьеры: 2 сентября 2021
Дата российской премьеры: 23 сентября 2021, «Вольга»
Продолжительность: 01:53:03
Качество видео: WEB-DLRip
Перевод: Дублированный (Чистый звук)
Язык озвучки: Русский
Субтитры: Отсутствуют
Реклама: Присутствуют аудио и видео вставки рекламы + баннер
Видео: Xvid, 720х400, ~1981 kbps
Аудио: AC3, 2 ch, 192 kbps

MediaInfo:

eneral
Complete name : D:\ЗАКАЧКИ с ТОРРЕНТОВ\Холодный.расчёт.2021.Дчз.WEB-DLRip.avi
Format : AVI
Format/Info : Audio Video Interleave
File size : 1.72 GiB
Duration : 1 h 53 min
Overall bit rate : 2 183 kb/s
Writing library : VirtualDub build 34703/release
Video
ID : 0
Format : MPEG-4 Visual
Format profile : Advanced Simple@L5
Format settings : BVOP2 / Custom Matrix
Format settings, BVOP : 2
Format settings, QPel : No
Format settings, GMC : No warppoints
Format settings, Matrix : Custom
Codec ID : XVID
Codec ID/Hint : XviD
Duration : 1 h 53 min
Bit rate : 1 981 kb/s
Width : 720 pixels
Height : 400 pixels
Display aspect ratio : 16:9
Frame rate : 23.976 (24000/1001) FPS
Original frame rate : 23.976 (23976/1000) FPS
Color space : YUV
Chroma subsampling : 4:2:0
Bit depth : 8 bits
Scan type : Progressive
Compression mode : Lossy
Bits/(Pixel*Frame) : 0.287
Stream size : 1.56 GiB (91%)
Writing library : XviD 69
Audio
ID : 1
Format : AC-3
Format/Info : Audio Coding 3
Commercial name : Dolby Digital
Codec ID : 2000
Duration : 1 h 53 min
Bit rate mode : Constant
Bit rate : 192 kb/s
Channel(s) : 2 channels
Channel layout : L R
Sampling rate : 48.0 kHz
Frame rate : 31.250 FPS (1536 SPF)
Compression mode : Lossy
Stream size : 155 MiB (9%)
Alignment : Split across interleaves
Interleave, duration : 42 ms (1.00 video frame)
Interleave, preload duratio : 500 ms
Service kind : Complete Main
Скриншоты:
Все одноименные релизы в КлубеВремя раздачи: 24/7 (минимум до появления первых 3-5 скачавших)
[Профиль] [ЛС]
Показать сообщения:    
Ответить на тему

Текущее время: 28-Фев 23:24

Часовой пояс: UTC ± 0



Вы не можете начинать темы
Вы не можете отвечать на сообщения
Вы не можете редактировать свои сообщения
Вы не можете удалять свои сообщения
Вы не можете голосовать в опросах
Вы не можете прикреплять файлы к сообщениям
Вы не можете скачивать файлы

[  Время выполнения: 0,039 сек  |  MySQL: 0,003 сек (9%) · 3 запр.  |  GZIP выкл  |  Память: 422,29 KB / 1,74 MB / 1,34 MB  |  Лимит: 10 10 10  ]