Имплантированная / Implanted (2021) WEBRip [H.264/1080p-LQ] [MVO] [AD]

Ответить на тему
 
Автор Сообщение

admin ®

Пол: Не указан

Стаж: 7 месяца 24 дня

Сообщений: 11520

Создавать темы 30-Янв-2024 14:35

[Цитировать]

Имплантированная / Implanted (2021) WEBRip [H.264/1080p-LQ]- Производство: США / Headache Films, Implanted Films, Mad Street Motion Pictures
Жанр: фантастика, триллер
Режиссер: Fabien Dufils
Актеры: Michelle Girolami, Эдуард Монтут, Кендес МакАдамс, Мартин Эвенс, Бари Химэн, Shirley Huang, Иво Велон, Надер Буссандель, Скотт Бротон, Марк Ресник
Описание:
Молодая женщина, находясь в тяжелой жизненной ситуации, соглашается на эксперимент, и ей вживляют микрочип с Искусственным Интеллектом. Однако, ей приходится постараться, чтобы выжить, когда ИИ захватывает контроль над ее телом и угрожает убить ее семью.
Дата мировой премьеры: 1 ноября 2021
Продолжительность: 01:35:26
Качество видео: WEBRip
Перевод: Многоголосый любительский (MUZOBOZ)
Субтитры: Отсутствуют
Реклама: Присутствует баннер.
Видео: AVC/H.264, 1920x796, ~10,1 Mbps
Аудио: AC3, 2 ch, 384 Kbps

MediaInfo:

Общее
Полное имя : D:\NNM\Имплантированная\Implanted.2021.WEBRip.1080p-LQ.mkv
Формат : Matroska
Версия формата : Version 2
Размер файла : 7,11 Гбайт
Продолжительность : 1 ч. 35 м.
Режим общего битрейта : Переменный
Общий поток : 10,7 Мбит/сек
Программа кодирования : libmatroska 1.4.1
Библиотека кодирования : SolveigMM Matroska Muxer Version 1.0.1904.23
Видео
Идентификатор : 1
Формат : AVC
Формат/Информация : Advanced Video Codec
Профиль формата : High@L4.1
Настройки формата : CABAC / 4 Ref Frames
Параметр CABAC формата : Да
Параметр RefFrames формата : 4 кадра
Идентификатор кодека : V_MPEG4/ISO/AVC
Продолжительность : 1 ч. 35 м.
Вид битрейта : Переменный
Битрейт : 10,1 Мбит/сек
Номинальный битрейт : 11,0 Мбит/сек
Максимальный битрейт : 11,0 Мбит/сек
Ширина : 1 920 пикселей
Высота : 796 пикселей
Соотношение сторон : 2,40:1
Режим частоты кадров : Постоянный
Частота кадров : 23,976 (24000/1001) кадра/сек
Стандарт вещания : Component
Цветовое пространство : YUV
Субдискретизация насыщенности : 4:2:0
Битовая глубина : 8 бит
Тип развёртки : Прогрессивная
Бит/(Пиксели*Кадры) : 0.275
Размер потока : 6,71 Гбайт (94%)
Default : Нет
Forced : Нет
Цветовой диапазон : Limited
Основные цвета : BT.709
Характеристики трансфера : BT.709
Коэффициенты матрицы : BT.709
Аудио
Идентификатор : 2
Формат : AC-3
Формат/Информация : Audio Coding 3
Коммерческое название : Dolby Digital
Идентификатор кодека : A_AC3
Продолжительность : 1 ч. 35 м.
Вид битрейта : Постоянный
Битрейт : 384 Кбит/сек
Каналы : 2 канала
Channel layout : L R
Частота : 48,0 КГц
Частота кадров : 31,250 кадров/сек (1536 SPF)
Метод сжатия : С потерями
Размер потока : 262 Мбайт (4%)
Язык : Russian
Service kind : Complete Main
Default : Нет
Forced : Нет
Скриншоты: Все одноименные релизы в КлубеВремя раздачи: 24/7 (до первых 3-5 скачавших)
[Профиль] [ЛС]
Показать сообщения:    
Ответить на тему

Текущее время: 23-Май 05:30

Часовой пояс: UTC ± 0



Вы не можете начинать темы
Вы не можете отвечать на сообщения
Вы не можете редактировать свои сообщения
Вы не можете удалять свои сообщения
Вы не можете голосовать в опросах
Вы не можете прикреплять файлы к сообщениям
Вы не можете скачивать файлы

[  Время выполнения: 0,041 сек  |  MySQL: 0,004 сек (10%) · 3 запр.  |  GZIP выкл  |  Память: 422,49 KB / 1,74 MB / 1,34 MB  |  Лимит: 11 13 15  ]