Дом на другой стороне / The Night House (2020) WEB-DLRip [Line, AD]

Ответить на тему
 
Автор Сообщение

admin ®

Пол: Не указан

Стаж: 4 месяца 27 дня

Сообщений: 10110

Создавать темы 30-Янв-2024 14:34

[Цитировать]

Дом на другой стороне / The Night House (2020) WEB-DLRip - Производство: Великобритания, США / Anton, Phantom Four Films
Жанр: ужасы
Режиссер: Дэвид Брукнер
Продюсер: Дэвид Брукнер, Франсуа Калленс, Бен Коллинз
Актеры: Ребекка Холл, Сара Голдберг, Вонди Куртис-Холл, Эван Йоникит, Стэйси Мартин, Дэвид Эбельс, Кристина Джексон, Патрик Клейн, Кристал Сванн, Катрин Уайднер
Описание:
После внезапной смерти мужа скорбящая вдова разбирает его вещи в загородном доме на берегу озера, где начинает замечать всякие странности. Сначала женщина грешит на призраков, но вскоре выясняется, что у муженька от нее были секреты.
Возраст: 18+ (зрителям, достигшим 18 лет. запрещено для детей)
Рейтинг MPAA: R (лицам до 17 лет обязательно присутствие взрослого)
Дата мировой премьеры: 24 января 2020
Дата российской премьеры: 9 сентября 2021, «Дисней Студиос»
Релиз от: Anrif
Продолжительность: 01:46:01
Качество видео: WEB-DLRip
Перевод: Дублированный (Line)
Субтитры: Отсутствуют
Реклама: Присутствует баннер!
Видео: XviD, 720x304, 1544 kbps
Аудио: АС-3, 2 ch, 256 kbps - Русский

MediaInfo:

Общее
Полное имя : F:\[Anf]_The Night House_(2020)_WEB-DLRip.avi
Формат : AVI
Формат/Информация : Audio Video Interleave
Профиль формата : OpenDML
Размер файла : 1,34 Гбайт
Продолжительность : 1 ч. 46 м.
Общий поток : 1 812 Кбит/сек
Видео
Идентификатор : 0
Формат : MPEG-4 Visual
Профиль формата : Advanced Simple@L5
Настройки формата : BVOP2
Параметр BVOP формата : 2
Параметр QPel формата : Нет
Параметр GMC формата : Без точки перехода
Параметр матрицы формата : Default (H.263)
Идентификатор кодека : XVID
Идентификатор кодека/Подсказка : XviD
Продолжительность : 1 ч. 46 м.
Битрейт : 1 544 Кбит/сек
Ширина : 720 пикселей
Высота : 304 пикселя
Соотношение сторон : 2,35:1
Частота кадров : 23,976 (24000/1001) кадра/сек
Цветовое пространство : YUV
Субдискретизация насыщенности : 4:2:0
Битовая глубина : 4 бит
Тип развёртки : Прогрессивная
Метод сжатия : С потерями
Бит/(Пиксели*Кадры) : 0.294
Размер потока : 1,14 Гбайт (85%)
Библиотека кодирования : XviD 1.2.1 (UTC 2008-12-04)
Аудио
Идентификатор : 1
Формат : AC-3
Формат/Информация : Audio Coding 3
Коммерческое название : Dolby Digital
Идентификатор кодека : 2000
Продолжительность : 1 ч. 46 м.
Вид битрейта : Постоянный
Битрейт : 256 Кбит/сек
Каналы : 2 канала
Channel layout : L R
Частота : 48,0 КГц
Частота кадров : 31,250 кадров/сек (1536 SPF)
Метод сжатия : С потерями
Размер потока : 194 Мбайт (14%)
Выравнивание : Соединение по промежуткам
Продолжительность промежутка : 32 мс. (0,77 видеокадр)
Service kind : Complete Main
Скриншоты: Все одноименные релизы в Клубе Время раздачи: с 18:00 до 24:00 (до первых 3-5 скачавших)
[Профиль] [ЛС]
Показать сообщения:    
Ответить на тему

Текущее время: 25-Фев 22:12

Часовой пояс: UTC ± 0



Вы не можете начинать темы
Вы не можете отвечать на сообщения
Вы не можете редактировать свои сообщения
Вы не можете удалять свои сообщения
Вы не можете голосовать в опросах
Вы не можете прикреплять файлы к сообщениям
Вы не можете скачивать файлы

[  Время выполнения: 0,029 сек  |  MySQL: 0,003 сек (10%) · 3 запр.  |  GZIP выкл  |  Память: 422,29 KB / 1,72 MB / 1,32 MB  |  Лимит: 14 16 17  ]