Вкус ореха бетель / Bing Lang Xue / The Taste of Betel Nut (2017) WEB-DLRip [DVO]

Ответить на тему
 
Автор Сообщение

admin ®

Пол: Не указан

Стаж: 4 месяца 27 дня

Сообщений: 10110

Создавать темы 30-Янв-2024 14:33

[Цитировать]

Вкус ореха бетель / Bing Lang Xue / The Taste of Betel Nut (2017) WEB-DLRip - Производство: Китай, Гонконг, V ShinBrothers
Жанр: драма, мелодрама
Режиссер: Ху Цзя
Актеры: Чжао Бинжуй, Юэ Е, Шэнь Шиюй
Описание:
Ли Ци работает дрессировщиком в шоу дельфинов, а Жэнь Юй преуспевает в своем мобильном караоке, отчасти потому, что он очень похож на известного китайского актера и певца Лесли Чуна. Жизнь этих двух парней на тропическом побережье острова Хайнань прекрасна и проста, и они в целом довольны тем, что дал им мир. Однажды к ним присоединяется молодая девушка Бай Лин и кардинально меняет их реальность.
Дата мировой премьеры: 13 февраля 2017
Дата российской премьеры: не предусмотрена
Релиз от: АрхиAsia
Продолжительность: 01:23:43
Качество видео: WEB-DLRip
Перевод: Двуголосый любительский (АрхиAsia)
Субтитры: отсутствуют
Реклама: Видеоряд содержит в верхнем правом углу логотип РГ АрхиAsia
Видео: Xvid, 720x400, ~2136 kbps
Аудио: AC3, 2 ch, 192 kbps | Русский (DVO, АрхиAsia)

MediaInfo:

Общее
Полное имя : C:\Vkus.orekha.betel.2017.WEB-DLRip.avi
Формат : AVI
Формат/Информация : Audio Video Interleave
Размер файла : 1,37 Гбайт
Продолжительность : 1 ч. 23 м.
Общий поток : 2 337 Кбит/сек
Название фильма : Вкус ореха бетель / Bing Lang Xue / The Taste of Betel Nut (2017) WEB-DLRip
Режиссёр : Ху Цзя / Hu Jia
Жанр : драма, мелодрама
Программа кодирования : VirtualDubMod 1.5.10.2 (build 2542/release)
Формат оригинала/Имя : Художественный фильм
Авторское право : Китай, Гонконг, V ShinBrothers
Примечание : Rip by vitolinform
Видео
Идентификатор : 0
Формат : MPEG-4 Visual
Профиль формата : Advanced Simple@L5
Настройки формата : BVOP1 / Custom Matrix
Параметр BVOP формата : 1
Параметр QPel формата : Нет
Параметр GMC формата : Без точки перехода
Параметр матрицы формата : Выборочная
Идентификатор кодека : XVID
Идентификатор кодека/Подсказка : XviD
Продолжительность : 1 ч. 23 м.
Битрейт : 2 136 Кбит/сек
Ширина : 720 пикселей
Высота : 400 пикселей
Соотношение сторон : 16:9
Частота кадров : 24,000 кадра/сек
Цветовое пространство : YUV
Субдискретизация насыщенности : 4:2:0
Битовая глубина : 8 бит
Тип развёртки : Прогрессивная
Метод сжатия : С потерями
Бит/(Пиксели*Кадры) : 0.309
Размер потока : 1,25 Гбайт (91%)
Библиотека кодирования : XviD 67
Аудио
Идентификатор : 1
Формат : AC-3
Формат/Информация : Audio Coding 3
Коммерческое название : Dolby Digital
Идентификатор кодека : 2000
Продолжительность : 1 ч. 23 м.
Вид битрейта : Постоянный
Битрейт : 192 Кбит/сек
Каналы : 2 канала
Channel layout : L R
Частота : 48,0 КГц
Частота кадров : 31,250 кадров/сек (1536 SPF)
Метод сжатия : С потерями
Размер потока : 115 Мбайт (8%)
Выравнивание : Разделение по промежуткам
Продолжительность промежутка : 42 мс. (1,00 видеокадр)
Время предзагрузки промежутка : 500 мс.
Заголовок : Russian (DVO, АрхиAsia)
Service kind : Complete Main
Скриншоты:
Все одноименные релизы в КлубеВремя раздачи: как минимум до появления первых 3-5 скачавших (минимум до появления первых 3-5 скачавших)
[Профиль] [ЛС]
Показать сообщения:    
Ответить на тему

Текущее время: 25-Фев 17:34

Часовой пояс: UTC ± 0



Вы не можете начинать темы
Вы не можете отвечать на сообщения
Вы не можете редактировать свои сообщения
Вы не можете удалять свои сообщения
Вы не можете голосовать в опросах
Вы не можете прикреплять файлы к сообщениям
Вы не можете скачивать файлы

[  Время выполнения: 0,033 сек  |  MySQL: 0,004 сек (11%) · 3 запр.  |  GZIP выкл  |  Память: 422,29 KB / 1,72 MB / 1,32 MB  |  Лимит: 9 9 9  ]