Настоящее / Honki no shirushi: Gekijoban / The Real Thing (2020) WEB-DLRip [DVO]

Ответить на тему
 
Автор Сообщение

admin ®

Пол: Не указан

Стаж: 6 месяца 22 дня

Сообщений: 11520

Создавать темы 30-Янв-2024 14:33

[Цитировать]

Настоящее / Honki no shirushi: Gekijoban / The Real Thing (2020) WEB-DLRip - Производство: Япония, Nagoya Broadcasting Network (Nagoya TV)
Жанр: драма
Режиссер: Кодзи Фукада
Продюсер: Ёко Абэ, Тацуя Мацуока, Кота Такахаси
Актеры: Вин Морисаки, Кахо Цутимура, Сёхэй Уно, Кэи Исибаси, Акари Фукунага, Кентес Асака, Юкия Китамура, Сюго Осинари
Описание:
Главный герой — Цудзи, хороший человек и уважаемый работник. Его жизнь скучна и обыденна, герой чувствует, как ему не хватает сильных эмоций. Он жаждет испытать чувство всепоглощающей любви. Когда в его жизни появляется загадочная молодая женщина, он решает, что она — именно та, которую он так ждал.
Дата мировой премьеры: 9 октября 2020
Дата российской премьеры: отсутствует
Релиз от: АрхиAsia
Продолжительность: 03:52:29
Качество видео: WEB-DLRip
Перевод: Двуголосый любительский (АрхиAsia)
Субтитры: Английские (хардсаб)
Реклама: Видеоряд содержит в верхнем правом углу логотип РГ АрхиAsia
Видео: Xvid, 720x400, ~1521 kbps
Аудио: AC3, 2 ch, 192 kbps | Русский (DVO, АрхиAsia)

MediaInfo:

Общее
Полное имя : D:\Nastoyashchee.2020.WEB-DLRip.avi
Формат : AVI
Формат/Информация : Audio Video Interleave
Профиль формата : OpenDML
Размер файла : 2,80 Гбайт
Продолжительность : 3 ч. 52 м.
Общий поток : 1 724 Кбит/сек
Название фильма : Настоящее / Honki no shirushi: Gekijoban / The Real Thing (2020) WEB-DLRip
Режиссёр : Кодзи Фукада / Koji Fukada
Жанр : драма
Программа кодирования : VirtualDubMod 1.5.10.2 (build 2542/release)
Формат оригинала/Имя : Художественный фильм
Авторское право : Япония, Nagoya Broadcasting Network (Nagoya TV)
Примечание : Rip by vitolinform
Видео
Идентификатор : 0
Формат : MPEG-4 Visual
Профиль формата : Advanced Simple@L5
Настройки формата : BVOP1 / Custom Matrix
Параметр BVOP формата : 1
Параметр QPel формата : Нет
Параметр GMC формата : Без точки перехода
Параметр матрицы формата : Выборочная
Идентификатор кодека : XVID
Идентификатор кодека/Подсказка : XviD
Продолжительность : 3 ч. 52 м.
Битрейт : 1 521 Кбит/сек
Ширина : 720 пикселей
Высота : 400 пикселей
Соотношение сторон : 16:9
Частота кадров : 23,976 (24000/1001) кадра/сек
Цветовое пространство : YUV
Субдискретизация насыщенности : 4:2:0
Битовая глубина : 8 бит
Тип развёртки : Прогрессивная
Метод сжатия : С потерями
Бит/(Пиксели*Кадры) : 0.220
Размер потока : 2,47 Гбайт (88%)
Библиотека кодирования : XviD 67
Аудио
Идентификатор : 1
Формат : AC-3
Формат/Информация : Audio Coding 3
Коммерческое название : Dolby Digital
Идентификатор кодека : 2000
Продолжительность : 3 ч. 52 м.
Вид битрейта : Постоянный
Битрейт : 192 Кбит/сек
Каналы : 2 канала
Channel layout : L R
Частота : 48,0 КГц
Частота кадров : 31,250 кадров/сек (1536 SPF)
Метод сжатия : С потерями
Размер потока : 319 Мбайт (11%)
Выравнивание : Разделение по промежуткам
Продолжительность промежутка : 42 мс. (1,00 видеокадр)
Время предзагрузки промежутка : 500 мс.
Заголовок : Russian (DVO, АрхиAsia)
Service kind : Complete Main

Дополнительная информация:

Перевод и озвучивание: РГ АрхиAsia
Перевод трейлера: Romaryllo
Редакция и тайминг: Macho
Роли озвучили: Veda, Datfeel
Видеоряд содержит неотключаемые (hardsub) английские субтитры. WEB-DL от Амазона, на данный момент видеоряда без хардсаба в сети нет.
Скриншоты:
Все одноименные релизы в КлубеВремя раздачи: как минимум до появления первых 3-5 скачавших (минимум до появления первых 3-5 скачавших)
[Профиль] [ЛС]
Показать сообщения:    
Ответить на тему

Текущее время: 20-Апр 19:25

Часовой пояс: UTC ± 0



Вы не можете начинать темы
Вы не можете отвечать на сообщения
Вы не можете редактировать свои сообщения
Вы не можете удалять свои сообщения
Вы не можете голосовать в опросах
Вы не можете прикреплять файлы к сообщениям
Вы не можете скачивать файлы

[  Время выполнения: 0,038 сек  |  MySQL: 0,004 сек (11%) · 5 запр.  |  GZIP выкл  |  Память: 422,29 KB / 1,73 MB / 1,34 MB  |  Лимит: 4 6 9  ]