Улица мучеников / Martyrs Lane (2021) WEB-DLRip [H.264/1080p-LQ] [MVO, AD]

Ответить на тему
 
Автор Сообщение

admin ®

Пол: Не указан

Стаж: 5 месяца 1 день

Сообщений: 10110

Создавать темы 30-Янв-2024 14:32

[Цитировать]

Улица мучеников / Martyrs Lane (2021) WEB-DLRip [H.264/1080p-LQ] - Производство: Великобритания / BFI, Ipso Facto Productions, Sharp
Жанр: ужасы
Режиссер: Рут Плэтт
Продюсер: Кристин Алдерсон, Кэти Ходкин, Эмма Даттон
Актеры: Анастасия Хилл, Денис Гоф, Стивен Кри, Ханна Рэй, Катрин Террис, Donna Banya, Lianne Harvey, Sienna Sayer, Кира Томпсон, Чарли Рикс
Описание:
Лиа - дочь викария старинного прихода, наполненного призраками и страшными историями. Однажды, блуждая по владениям, она встречает маленькую девочку своего возраста и начинает тайно от родителей общаться с ней. С каждым днём маленькая гостья всё сильнее завладевает разумом Лии и незаметно толкает в сторону тёмного и неизведанного.
Дата мировой премьеры: 19 августа 2021
Релиз от: Anrif
Продолжительность: 01:35:42
Качество видео: WEB-DLRip
Перевод: Любительский многоголосый (AlphaProject)
Язык озвучки: Русский
Субтитры: Отсутствуют
Реклама: Присутствует баннер!
Видео: AVC/H.264, 1920x1040, ~8223 kbps
Аудио: AС-3, 2 ch, 256 kbps - Русский

MediaInfo:

Общее
Уникальный идентификатор : 241689423631112968022991058670174298982 (0xB5D3B09820B43A24ACDB5A5E4AE76366)
Полное имя : F:\[Anf]_Martyrs Lane_(2021)_WEB-DLRip_[1080p-LQ].mkv
Формат : Matroska
Версия формата : Version 4
Размер файла : 5,67 Гбайт
Продолжительность : 1 ч. 35 м.
Режим общего битрейта : Переменный
Общий поток : 8 481 Кбит/сек
Название фильма : Martyrs Lane_(2021)
Дата кодирования : UTC 2021-09-12 21:39:23
Программа кодирования : mkvmerge v10.0.0 ('To Drown In You') 64bit
Библиотека кодирования : libebml v1.3.4 + libmatroska v1.4.5
Видео
Идентификатор : 1
Формат : AVC
Формат/Информация : Advanced Video Codec
Профиль формата : High@L4.1
Настройки формата : CABAC / 4 Ref Frames
Параметр CABAC формата : Да
Параметр RefFrames формата : 4 кадра
Идентификатор кодека : V_MPEG4/ISO/AVC
Продолжительность : 1 ч. 35 м.
Вид битрейта : Переменный
Битрейт : 8 223 Кбит/сек
Максимальный битрейт : 9 000 Кбит/сек
Ширина : 1 920 пикселей
Высота : 1 040 пикселей
Соотношение сторон : 1,85:1
Режим частоты кадров : Постоянный
Частота кадров : 23,976 (24000/1001) кадра/сек
Стандарт вещания : Component
Цветовое пространство : YUV
Субдискретизация насыщенности : 4:2:0
Битовая глубина : 8 бит
Тип развёртки : Прогрессивная
Бит/(Пиксели*Кадры) : 0.172
Размер потока : 5,50 Гбайт (97%)
Заголовок : Anrif
Язык : English
Default : Да
Forced : Нет
Цветовой диапазон : Limited
Основные цвета : BT.709
Характеристики трансфера : BT.709
Коэффициенты матрицы : BT.709
Аудио
Идентификатор : 2
Формат : AC-3
Формат/Информация : Audio Coding 3
Коммерческое название : Dolby Digital
Идентификатор кодека : A_AC3
Продолжительность : 1 ч. 35 м.
Вид битрейта : Постоянный
Битрейт : 256 Кбит/сек
Каналы : 2 канала
Channel layout : L R
Частота : 48,0 КГц
Частота кадров : 31,250 кадров/сек (1536 SPF)
Метод сжатия : С потерями
Задержка видео : 19 мс.
Размер потока : 175 Мбайт (3%)
Заголовок : (MVO, AlphaProject)
Язык : Russian
Service kind : Complete Main
Default : Да
Forced : Нет
Скриншоты: Все одноименные релизы в Клубе Время раздачи: с 18:00 до 24:00 (до первых 3-5 скачавших)
[Профиль] [ЛС]
Показать сообщения:    
Ответить на тему

Текущее время: 29-Фев 12:53

Часовой пояс: UTC ± 0



Вы не можете начинать темы
Вы не можете отвечать на сообщения
Вы не можете редактировать свои сообщения
Вы не можете удалять свои сообщения
Вы не можете голосовать в опросах
Вы не можете прикреплять файлы к сообщениям
Вы не можете скачивать файлы

[  Время выполнения: 0,036 сек  |  MySQL: 0,003 сек (7%) · 3 запр.  |  GZIP выкл  |  Память: 422,29 KB / 1,74 MB / 1,34 MB  |  Лимит: 20 19 18  ]