Фукуока / Fukuoka (2019) WEB-DLRip [DVO]

Ответить на тему
 
Автор Сообщение

admin ®

Пол: Не указан

Стаж: 4 месяца 27 дня

Сообщений: 10110

Создавать темы 30-Янв-2024 14:31

[Цитировать]

Фукуока / Fukuoka (2019) WEB-DLRip - Производство: Южная Корея, Япония, Lu Films, Indiestory Inc.
Жанр: драма, мелодрама
Режиссер: Чжан Лу
Актеры: Юн Джэ-мун, Квон Хэ-хё, Пак Со-дам, Чжао Жуй
Описание:
Хэ-хё и Джэ-мун когда-то дружили в колледже, но перестали общаться, влюбившись в одну и ту же девушку. С тех пор прошло много времени. Приближаясь к среднему возрасту, Джэ-мун всё чаще вспоминает студенческую жизнь. Однажды он встречает странную девушку Со-дам, и это знакомство побуждает его отправиться в долгое путешествие по Японии, чтобы найти Хэ-хё.
Дата мировой премьеры: 11 февраля 2019
Дата российской премьеры: 11 февраля 2019
Релиз от: АрхиAsia
Продолжительность: 01:25:23
Качество видео: WEB-DLRip
Перевод: Двуголосый любительский (АрхиAsia)
Субтитры: отсутствуют
Реклама: Видеоряд содержит в верхнем правом углу логотип РГ АрхиAsia
Видео: Xvid, 720x384, ~2091 kbps
Аудио: AC3, 2 ch, 192 kbps | Русский (DVO, АрхиAsia)

MediaInfo:

Общее
Полное имя : C:\Fukuoka.2019.WEB-DLRip.avi
Формат : AVI
Формат/Информация : Audio Video Interleave
Размер файла : 1,37 Гбайт
Продолжительность : 1 ч. 25 м.
Общий поток : 2 292 Кбит/сек
Название фильма : Фукуока / Fukuoka (2019) WEB-DLRip
Режиссёр : Чжан Лу / Zhang Lu
Жанр : драма, мелодрама
Программа кодирования : VirtualDubMod 1.5.10.2 (build 2542/release)
Формат оригинала/Имя : Художественный фильм
Авторское право : Южная Корея, Япония, Lu Films, Indiestory Inc.
Примечание : Rip by vitolinform
Видео
Идентификатор : 0
Формат : MPEG-4 Visual
Профиль формата : Advanced Simple@L5
Настройки формата : BVOP1 / Custom Matrix
Параметр BVOP формата : 1
Параметр QPel формата : Нет
Параметр GMC формата : Без точки перехода
Параметр матрицы формата : Выборочная
Идентификатор кодека : XVID
Идентификатор кодека/Подсказка : XviD
Продолжительность : 1 ч. 25 м.
Битрейт : 2 091 Кбит/сек
Ширина : 720 пикселей
Высота : 384 пикселя
Соотношение сторон : 1,85:1
Частота кадров : 24,000 кадра/сек
Цветовое пространство : YUV
Субдискретизация насыщенности : 4:2:0
Битовая глубина : 8 бит
Тип развёртки : Прогрессивная
Метод сжатия : С потерями
Бит/(Пиксели*Кадры) : 0.315
Размер потока : 1,25 Гбайт (91%)
Библиотека кодирования : XviD 67
Аудио
Идентификатор : 1
Формат : AC-3
Формат/Информация : Audio Coding 3
Коммерческое название : Dolby Digital
Идентификатор кодека : 2000
Продолжительность : 1 ч. 25 м.
Вид битрейта : Постоянный
Битрейт : 192 Кбит/сек
Каналы : 2 канала
Channel layout : L R
Частота : 48,0 КГц
Частота кадров : 31,250 кадров/сек (1536 SPF)
Метод сжатия : С потерями
Размер потока : 117 Мбайт (8%)
Выравнивание : Разделение по промежуткам
Продолжительность промежутка : 42 мс. (1,00 видеокадр)
Время предзагрузки промежутка : 500 мс.
Заголовок : Russian (DVO, АрхиAsia)
Service kind : Complete Main

Дополнительная информация:

Переведено и озвучено: РГ АрхзиAsia
Перевод: Romaryllo
Редакция, тайминг: Macho
Озвучивали: Veda, Datfeel
Реклама: Видеоряд содержит логотип РГ АрхзиAsia в верхнем правом углу
Скриншоты:
Все одноименные релизы в КлубеВремя раздачи: как минимум до появления первых 3-5 скачавших (минимум до появления первых 3-5 скачавших)
[Профиль] [ЛС]
Показать сообщения:    
Ответить на тему

Текущее время: 25-Фев 17:47

Часовой пояс: UTC ± 0



Вы не можете начинать темы
Вы не можете отвечать на сообщения
Вы не можете редактировать свои сообщения
Вы не можете удалять свои сообщения
Вы не можете голосовать в опросах
Вы не можете прикреплять файлы к сообщениям
Вы не можете скачивать файлы

[  Время выполнения: 0,029 сек  |  MySQL: 0,002 сек (8%) · 3 запр.  |  GZIP выкл  |  Память: 422,29 KB / 1,72 MB / 1,32 MB  |  Лимит: 10 9 9  ]