Сквозь тусклое стекло / Through the Glass Darkly (2020) WEB-DLRip [MVO] [AD]

Ответить на тему
 
Автор Сообщение

admin ®

Пол: Не указан

Стаж: 6 месяца 22 дня

Сообщений: 11520

Создавать темы 30-Янв-2024 14:30

[Цитировать]

Сквозь тусклое стекло / Through the Glass Darkly (2020) WEB-DLRip- Производство: США / However Productions
Жанр: триллер
Режиссер: Лорен Фаш
Актеры: Майкл Трукко, Робин Лайвли, Шанола Хэмптон, Катрина Норма, Джудит Айви, Бетани Энн Линд, Керри Кехилл, Николас Логан, Винс Фостер, Kinsley Isla Dillon
Описание:
Спустя год после того, как у Чарли пропала дочь, в городке Элрод пропадает ещё одна девочка. Чарли, будучи уверенной в том, что между двумя этими делами есть связь, начинает подозревать всех, от обычных горожан до полицейских, пытаясь любой ценой узнать правду, какой бы мрачной и жестокой она ни была.
Дата мировой премьеры: 15 октября 2020
Продолжительность: 01:42:09
Качество видео: WEB-DLRip
Перевод: Многоголосый любительский (MUZOBOZ)
Субтитры: Отсутствуют
Реклама: Присутствует баннер.
Видео: XviD, 720x304, ~1768 Kbps
Аудио: AC-3, 2 ch, 256 Kbps

MediaInfo:

Общее
Полное имя : D:\NNM\Сквозь тусклое стекло\Through.the.Glass.Darkly.2021.WEB-DLRip.avi
Формат : AVI
Формат/Информация : Audio Video Interleave
Размер файла : 1,45 Гбайт
Продолжительность : 1 ч. 42 м.
Общий поток : 2 035 Кбит/сек
Программа кодирования : VirtualDubMod 1.5.10.3 | www.virtualdub-fr.org || (build 2550/release)
Библиотека кодирования : VirtualDubMod build 2550/release
Видео
Идентификатор : 0
Формат : MPEG-4 Visual
Профиль формата : Advanced Simple@L5
Настройки формата : BVOP1 / Custom Matrix
Параметр BVOP формата : 1
Параметр QPel формата : Нет
Параметр GMC формата : Без точки перехода
Параметр матрицы формата : Выборочная
Идентификатор кодека : XVID
Идентификатор кодека/Подсказка : XviD
Продолжительность : 1 ч. 42 м.
Битрейт : 1 768 Кбит/сек
Ширина : 720 пикселей
Высота : 304 пикселя
Соотношение сторон : 2,35:1
Частота кадров : 29,970 (30000/1001) кадров/сек
Цветовое пространство : YUV
Субдискретизация насыщенности : 4:2:0
Битовая глубина : 8 бит
Тип развёртки : Прогрессивная
Метод сжатия : С потерями
Бит/(Пиксели*Кадры) : 0.269
Размер потока : 1,26 Гбайт (87%)
Библиотека кодирования : XviD 73
Аудио
Идентификатор : 1
Формат : AC-3
Формат/Информация : Audio Coding 3
Коммерческое название : Dolby Digital
Идентификатор кодека : 2000
Продолжительность : 1 ч. 42 м.
Вид битрейта : Постоянный
Битрейт : 256 Кбит/сек
Каналы : 2 канала
Channel layout : L R
Частота : 48,0 КГц
Частота кадров : 31,250 кадров/сек (1536 SPF)
Метод сжатия : С потерями
Размер потока : 187 Мбайт (13%)
Выравнивание : Разделение по промежуткам
Продолжительность промежутка : 33 мс. (1,00 видеокадр)
Время предзагрузки промежутка : 500 мс.
Service kind : Complete Main
Скриншоты: Все одноименные релизы в КлубеВремя раздачи: 24/7 (до 10 скачавших)
[Профиль] [ЛС]
Показать сообщения:    
Ответить на тему

Текущее время: 20-Апр 19:03

Часовой пояс: UTC ± 0



Вы не можете начинать темы
Вы не можете отвечать на сообщения
Вы не можете редактировать свои сообщения
Вы не можете удалять свои сообщения
Вы не можете голосовать в опросах
Вы не можете прикреплять файлы к сообщениям
Вы не можете скачивать файлы

[  Время выполнения: 0,034 сек  |  MySQL: 0,002 сек (7%) · 3 запр.  |  GZIP выкл  |  Память: 422,29 KB / 1,74 MB / 1,34 MB  |  Лимит: 13 15 14  ]