Другая свадьба / Ddo hanbeoneui wueiding / The Wedding Planner / Drama Special: Another Wedding (2012) WEBRip [DVO]

Ответить на тему
 
Автор Сообщение

admin ®

Пол: Не указан

Стаж: 4 месяца 27 дня

Сообщений: 10110

Создавать темы 30-Янв-2024 14:29

[Цитировать]

Другая свадьба / Ddo hanbeoneui wueiding / The Wedding Planner / Drama Special: Another Wedding (2012) WEBRip - Производство: Южная Корея, KBS2
Жанр: драма, мелодрама, комедия
Режиссер: Чхве Чжи Ён
Актеры: Хон Су Хён, Джин Ли Хан, Фуджий Мина, Ким Сыль Ги, Ким Мин Гё, Чхве Хи-со, Ким Бо-ён
Описание:
Чха Ха Гён работает организатором свадеб и совершенно не думает о собственной личной жизни, когда вдруг, как снег на голову, сваливается очередной заказ. Будущее торжество нужно организовать как можно более тщательно, ведь замуж выходит дочка крупного японского инвестора. Однако эта свадьба будет большим сюрпризом для Ха Гён, так как жених – не кто иной, как…
Дата мировой премьеры: 23 декабря 2012
Дата российской премьеры: отсутствует
Релиз от: Rip by vitolinform
Продолжительность: 01:22:09
Качество видео: WEBRip
Перевод: Двуголосый любительский (АрхиAsia)
Субтитры: отсутствуют
Реклама: Видеоряд содержит логотипа релиз группы АрхиAsia
Видео: Xvid, 720x400, ~1073 kbps
Аудио: AC3, 2 ch, 192 kbps | Русский (DVO, АрхиAsia)

MediaInfo:

Общее
Полное имя : C:\Drugaya.svadba.2012.WEBRip.avi
Формат : AVI
Формат/Информация : Audio Video Interleave
Размер файла : 749 Мбайт
Продолжительность : 1 ч. 22 м.
Общий поток : 1 275 Кбит/сек
Название фильма : Другая свадьба / Ddo hanbeoneui wueiding / Drama Special: Another Weddin / The Wedding Planner, One More Wedding (2012) WEBRip
Режиссёр : Чхве Джи-ён / Ji Young Choi
Жанр : драма, мелодрама
Программа кодирования : VirtualDubMod 1.5.10.2 (build 2542/release)
Формат оригинала/Имя : ТВ фильм
Авторское право : Ююжная Корея, KBS2
Примечание : Rip by vitolinform
Видео
Идентификатор : 0
Формат : MPEG-4 Visual
Профиль формата : Advanced Simple@L5
Настройки формата : BVOP1 / Custom Matrix
Параметр BVOP формата : 1
Параметр QPel формата : Нет
Параметр GMC формата : Без точки перехода
Параметр матрицы формата : Выборочная
Идентификатор кодека : XVID
Идентификатор кодека/Подсказка : XviD
Продолжительность : 1 ч. 22 м.
Битрейт : 1 073 Кбит/сек
Ширина : 720 пикселей
Высота : 400 пикселей
Соотношение сторон : 16:9
Частота кадров : 23,976 (24000/1001) кадра/сек
Частота кадров в оригинале : 23,976 (23976/1000) кадра/сек
Цветовое пространство : YUV
Субдискретизация насыщенности : 4:2:0
Битовая глубина : 8 бит
Тип развёртки : Прогрессивная
Метод сжатия : С потерями
Бит/(Пиксели*Кадры) : 0.155
Размер потока : 630 Мбайт (84%)
Библиотека кодирования : XviD 67
Аудио
Идентификатор : 1
Формат : AC-3
Формат/Информация : Audio Coding 3
Коммерческое название : Dolby Digital
Идентификатор кодека : 2000
Продолжительность : 1 ч. 22 м.
Вид битрейта : Постоянный
Битрейт : 192 Кбит/сек
Каналы : 2 канала
Channel layout : L R
Частота : 48,0 КГц
Частота кадров : 31,250 кадров/сек (1536 SPF)
Метод сжатия : С потерями
Размер потока : 113 Мбайт (15%)
Выравнивание : Разделение по промежуткам
Продолжительность промежутка : 42 мс. (1,00 видеокадр)
Время предзагрузки промежутка : 500 мс.
Заголовок : Russian (DVO, АрхиAsia)
Service kind : Complete Main

Дополнительная информация:

Перевод: ФСГ SeouLights
Озвучено: РГ АрзиAsia
Редакция, тайминг: Macho
Озвучивали: Veda, Datfeel
Скриншоты:
Все одноименные релизы в КлубеВремя раздачи: 24/7 (мультитрекерная раздача) (минимум до появления первых 3-5 скачавших)
[Профиль] [ЛС]
Показать сообщения:    
Ответить на тему

Текущее время: 25-Фев 17:58

Часовой пояс: UTC ± 0



Вы не можете начинать темы
Вы не можете отвечать на сообщения
Вы не можете редактировать свои сообщения
Вы не можете удалять свои сообщения
Вы не можете голосовать в опросах
Вы не можете прикреплять файлы к сообщениям
Вы не можете скачивать файлы

[  Время выполнения: 0,038 сек  |  MySQL: 0,003 сек (8%) · 3 запр.  |  GZIP выкл  |  Память: 422,29 KB / 1,74 MB / 1,34 MB  |  Лимит: 9 9 9  ]