Эхо насилия / Отголоски насилия / Echoes of Violence (2021) WEBRip [H.264/720p-LQ] [MVO, AD]

Ответить на тему
 
Автор Сообщение

admin ®

Пол: Не указан

Стаж: 6 месяца 22 дня

Сообщений: 11520

Создавать темы 30-Янв-2024 14:29

[Цитировать]

Эхо насилия / Отголоски насилия / Echoes of Violence (2021) WEBRip- Производство: США / Landwirth Legacy Productions, Phoenix Down Films
Жанр: триллер, драма, криминал
Режиссер: Николас Вудс
Актеры: Фрэнк Оз, Сэм Андерсон, Эми Толски, Мэйнард Баганг, Шон Диллинхэм, Верити Бранко, David Thomas Newman, Дженнифер Левинсон, Грэхэм Кларк, Michaella Russell
Описание:
Иммигрантка едет из Седоны в Лос-Анджелес, чтобы отомстить иммиграционному адвокату, который разрушил ее жизнь.
Дата мировой премьеры: 24 августа 2021
Продолжительность: 01:47:41
Качество видео: WEBRip
Перевод: Многоголосый любительский
Язык озвучки: Русский
Субтитры: Отсутствуют
Реклама: Присутствуют баннер, аудио и видео вставки рекламы
Видео: AVC/H.264, 1280x512, ~1177 kbps
Аудио: AAC, 2 ch, 192 kbps - русский

MediaInfo:

General
Unique ID : 62176106804311494307183883416991344060 (0x2EC6AEBE5928DA97C2ED09F96286A5BC)
Complete name : Echoes_of_Violence_2021_720p.mkv
Format : Matroska
Format version : Version 4
File size : 1.02 GiB
Duration : 1 h 47 min
Overall bit rate : 1 377 kb/s
Encoded date : UTC 2021-08-25 06:03:24
Writing application : mkvmerge v60.0.0 ('Are We Copies?') 64-bit
Writing library : libebml v1.4.2 + libmatroska v1.6.4
Video
ID : 1
Format : AVC
Format/Info : Advanced Video Codec
Format profile : High@L3.2
Format settings : CABAC / 4 Ref Frames
Format settings, CABAC : Yes
Format settings, ReFrames : 4 frames
Codec ID : V_MPEG4/ISO/AVC
Duration : 1 h 47 min
Bit rate : 1 177 kb/s
Width : 1 280 pixels
Height : 512 pixels
Display aspect ratio : 2.500
Frame rate mode : Constant
Frame rate : 23.976 (24000/1001) FPS
Color space : YUV
Chroma subsampling : 4:2:0
Bit depth : 8 bits
Scan type : Progressive
Bits/(Pixel*Frame) : 0.074
Stream size : 898 MiB (86%)
Writing library : x264 core 155 r2917 0a84d98
Encoding settings : cabac=1 / ref=3 / deblock=1:0:0 / analyse=0x3:0x113 / me=hex / subme=7 / psy=1 / psy_rd=1.00:0.00 / mixed_ref=1 / me_range=16 / chroma_me=1 / trellis=1 / 8x8dct=1 / cqm=0 / deadzone=21,11 / fast_pskip=1 / chroma_qp_offset=-2 / threads=12 / lookahead_threads=2 / sliced_threads=0 / nr=0 / decimate=1 / interlaced=0 / bluray_compat=0 / constrained_intra=0 / bframes=3 / b_pyramid=2 / b_adapt=1 / b_bias=0 / direct=1 / weightb=1 / open_gop=0 / weightp=2 / keyint=250 / keyint_min=23 / scenecut=40 / intra_refresh=0 / rc_lookahead=40 / rc=crf / mbtree=1 / crf=20.0 / qcomp=0.60 / qpmin=0 / qpmax=69 / qpstep=4 / vbv_maxrate=2000 / vbv_bufsize=4000 / crf_max=0.0 / nal_hrd=none / filler=0 / ip_ratio=1.40 / aq=1:1.00
Default : Yes
Forced : No
Color range : Limited
Color primaries : BT.709
Transfer characteristics : BT.709
Matrix coefficients : BT.709
Audio
ID : 2
Format : AAC LC
Format/Info : Advanced Audio Codec Low Complexity
Codec ID : A_AAC-2
Duration : 1 h 47 min
Bit rate : 192 kb/s
Channel(s) : 2 channels
Channel layout : L R
Sampling rate : 48.0 kHz
Frame rate : 46.875 FPS (1024 SPF)
Compression mode : Lossy
Delay relative to video : -83 ms
Stream size : 148 MiB (14%)
Default : Yes
Forced : No
Скриншоты:
Все одноименные релизы в КлубеВремя раздачи: 24/7 (до появления 3-5 скачавших)
[Профиль] [ЛС]
Показать сообщения:    
Ответить на тему

Текущее время: 20-Апр 19:34

Часовой пояс: UTC ± 0



Вы не можете начинать темы
Вы не можете отвечать на сообщения
Вы не можете редактировать свои сообщения
Вы не можете удалять свои сообщения
Вы не можете голосовать в опросах
Вы не можете прикреплять файлы к сообщениям
Вы не можете скачивать файлы

[  Время выполнения: 0,037 сек  |  MySQL: 0,003 сек (8%) · 3 запр.  |  GZIP выкл  |  Память: 422,29 KB / 1,73 MB / 1,33 MB  |  Лимит: 7 6 8  ]