Больше чем семья / Aebigyuhwan / More Than Family (2020) WEB-DLRip [DVO]

Ответить на тему
 
Автор Сообщение

admin ®

Пол: Не указан

Стаж: 4 месяца 23 дня

Сообщений: 10110

Создавать темы 30-Янв-2024 14:28

[Цитировать]

Больше чем семья / Aebigyuhwan / More Than Family (2020) WEB-DLRip - Производство: Южная Корея, ATO Film, MOTTO Pictures
Жанр: драма, комедия
Режиссер: Чхве Ха-на
Актеры: Кристал Чон, Чан Хе-джин, Чхве Дон-мун, Щин Джэ-хви, Кан Маль-гым, Ли Хэ-ён, Мун Чхоль Нам, Ли Джу-вон
Описание:
То Иль - 21 летняя студентка колледжа. Внезапно она узнаёт, что забеременела от своего 18 летнего парня. Они решают оставить ребёнка и пожениться. Но девушка чувствует, что ещё слишком юна и не готова к материнству. То Иль решает навестить отца, с которым давно не общается и не видела с раннего детства, чтобы получить совет.
Дата мировой премьеры: 25 октября 2020
Не предусмотрена
Релиз от: Rip by vitolinform
Продолжительность: 01:48:05
Качество видео: WEB-DLRip
Перевод: Двуголосый любительский (АрхиAsia)
Субтитры: отсутствуют
Реклама: Видеоряд содержит логотип РГ АрхиAsia
Видео: Xvid, 720x304, ~1739 kbps
Аудио: AC3, 2 ch, 192 kbps | Русский (DVO, АрхиAsia)

MediaInfo:

Oбщее
Полное имя : D:\Bolshe.chem.semya.2020.WEB-DLRip.avi
Формат : AVI
Формат/Информация : Audio Video Interleave
Размер файла : 1,46 Гбайт
Продолжительность : 1 ч. 48 м.
Общий поток : 1 940 Кбит/сек
Название фильма : Больше чем семья / Aebigyuhwan / More Than Family (2020) WEB-DLRip
Режиссёр : Чхве Ха-на / Choi Ha-na
Жанр : драма, комедия
Программа кодирования : VirtualDubMod 1.5.10.2 (build 2542/release)
Формат оригинала/Имя : Художественный фильм
Авторское право : Южная Колея, ATO Film, MOTTO Pictures
Примечание : Rip by vitolinform
Видео
Идентификатор : 0
Формат : MPEG-4 Visual
Профиль формата : Advanced Simple@L5
Настройки формата : BVOP1 / Custom Matrix
Параметр BVOP формата : 1
Параметр QPel формата : Нет
Параметр GMC формата : Без точки перехода
Параметр матрицы формата : Выборочная
Идентификатор кодека : XVID
Идентификатор кодека/Подсказка : XviD
Продолжительность : 1 ч. 48 м.
Битрейт : 1 739 Кбит/сек
Ширина : 720 пикселей
Высота : 304 пикселя
Соотношение сторон : 2,35:1
Частота кадров : 23,976 (24000/1001) кадра/сек
Цветовое пространство : YUV
Субдискретизация насыщенности : 4:2:0
Битовая глубина : 8 бит
Тип развёртки : Прогрессивная
Метод сжатия : С потерями
Бит/(Пиксели*Кадры) : 0.331
Размер потока : 1,31 Гбайт (90%)
Библиотека кодирования : XviD 67
Аудио
Идентификатор : 1
Формат : AC-3
Формат/Информация : Audio Coding 3
Коммерческое название : Dolby Digital
Идентификатор кодека : 2000
Продолжительность : 1 ч. 48 м.
Вид битрейта : Постоянный
Битрейт : 192 Кбит/сек
Каналы : 2 канала
Channel layout : L R
Частота : 48,0 КГц
Частота кадров : 31,250 кадров/сек (1536 SPF)
Метод сжатия : С потерями
Размер потока : 148 Мбайт (10%)
Выравнивание : Разделение по промежуткам
Продолжительность промежутка : 42 мс. (1,00 видеокадр)
Время предзагрузки промежутка : 500 мс.
Заголовок : Russian (DVO, АрхиAsia)
Service kind : Complete Main

Дополнительная информация:

Переведено и озвучено: РГ АрхиAsia
Перевод: Romaryllo, Makkoli
Редакция, тайминг: Macho
Озвучивали: Veda, Datfeel
Реклама: Видеоряд содержит логотип РГ АрхиAsia
Скриншоты:
Все одноименные релизы в КлубеВремя раздачи: 24/7 (мультитрекерная раздача) (минимум до появления первых 3-5 скачавших)
[Профиль] [ЛС]
Показать сообщения:    
Ответить на тему

Текущее время: 22-Фев 01:54

Часовой пояс: UTC ± 0



Вы не можете начинать темы
Вы не можете отвечать на сообщения
Вы не можете редактировать свои сообщения
Вы не можете удалять свои сообщения
Вы не можете голосовать в опросах
Вы не можете прикреплять файлы к сообщениям
Вы не можете скачивать файлы

[  Время выполнения: 0,042 сек  |  MySQL: 0,004 сек (9%) · 3 запр.  |  GZIP выкл  |  Память: 421,85 KB / 1,73 MB / 1,34 MB  |  Лимит: 10 10 13  ]