Воспоминания / Reminiscence (2021) WEB-DLRip [Line, AD]

Ответить на тему
 
Автор Сообщение

admin ®

Пол: Не указан

Стаж: 4 месяца 27 дня

Сообщений: 10110

Создавать темы 30-Янв-2024 14:28

[Цитировать]

Воспоминания / Reminiscence (2021) WEB-DLRip - Производство: США / FilmNation Entertainment, Kilter Films, Michael De Luca Productions
Жанр: фантастика, триллер, мелодрама, детектив
Режиссер: Лиза Джой
Продюсер: Майкл Де Лука, Лиза Джой, Д. Скотт Лампкин
Актеры: Хью Джекман, Ребекка Фергюсон, Тандиве Ньютон, Клифф Кёртис, Дэниэл Ву, Моджиан Ариа, Марина Де Тавира, Бретт Каллен, Натали Мартинес, Анджела Сарафян
Описание:
Недалёкое будущее, Майами почти полностью ушёл под воду из-за глобального потепления. Частный детектив Ник Баннистер с помощью специальной технологии выискивает в человеческой памяти нужные моменты, чтобы заказчик мог заново пережить прошлое и вспомнить что-то важное. Однажды на пороге его офиса появляется клиентка с простой просьбой: она забыла, где оставила ключи. Обычная сессия превращается в полноценный роман, пока в один день женщина не исчезает без следа.
Возраст: 16+ (зрителям, достигшим 16 лет)
Рейтинг MPAA: PG-13 (детям до 13 лет просмотр нежелателен)
Дата мировой премьеры: 11 августа 2021
Дата российской премьеры: 26 августа 2021, «UPI»
Продолжительность: 01:54:16
Качество видео: WEB-DLRip
Перевод: Дублированный (Line)
Субтитры: Отсутствуют
Реклама: Присутствует баннер.
Видео: XviD, 720x304, ~2318 Kbps
Аудио: AC-3, 2 ch, 384 kbps

MediaInfo:

Общее
Полное имя : C:\z\Reminiscence.2021.WEB-DLRip.avi
Формат : AVI
Формат/Информация : Audio Video Interleave
Профиль формата : OpenDML
Размер файла : 2,17 Гбайт
Продолжительность : 1 ч. 54 м.
Общий поток : 2 716 Кбит/сек
Программа кодирования : VirtualDubMod 1.5.10.3 | www.virtualdub-fr.org || (build 2550/release)
Библиотека кодирования : VirtualDubMod build 2550/release
Видео
Идентификатор : 0
Формат : MPEG-4 Visual
Профиль формата : Advanced Simple@L5
Настройки формата : BVOP1 / Custom Matrix
Параметр BVOP формата : 1
Параметр QPel формата : Нет
Параметр GMC формата : Без точки перехода
Параметр матрицы формата : Выборочная
Идентификатор кодека : XVID
Идентификатор кодека/Подсказка : XviD
Продолжительность : 1 ч. 54 м.
Битрейт : 2 318 Кбит/сек
Ширина : 720 пикселей
Высота : 304 пикселя
Соотношение сторон : 2,35:1
Частота кадров : 29,970 (30000/1001) кадров/сек
Цветовое пространство : YUV
Субдискретизация насыщенности : 4:2:0
Битовая глубина : 8 бит
Тип развёртки : Прогрессивная
Метод сжатия : С потерями
Бит/(Пиксели*Кадры) : 0.353
Размер потока : 1,85 Гбайт (85%)
Библиотека кодирования : XviD 1.2.1 (UTC 2008-12-04)
Аудио
Идентификатор : 1
Формат : AC-3
Формат/Информация : Audio Coding 3
Коммерческое название : Dolby Digital
Идентификатор кодека : 2000
Продолжительность : 1 ч. 54 м.
Вид битрейта : Постоянный
Битрейт : 384 Кбит/сек
Каналы : 2 канала
Channel layout : L R
Частота : 48,0 КГц
Частота кадров : 31,250 кадров/сек (1536 SPF)
Метод сжатия : С потерями
Размер потока : 314 Мбайт (14%)
Выравнивание : Разделение по промежуткам
Продолжительность промежутка : 33 мс. (1,00 видеокадр)
Время предзагрузки промежутка : 500 мс.
Service kind : Complete Main
Скриншоты: Все одноименные релизы в Клубе Время раздачи: 24/7 (до 3-5 скачавших)
[Профиль] [ЛС]
Показать сообщения:    
Ответить на тему

Текущее время: 25-Фев 22:47

Часовой пояс: UTC ± 0



Вы не можете начинать темы
Вы не можете отвечать на сообщения
Вы не можете редактировать свои сообщения
Вы не можете удалять свои сообщения
Вы не можете голосовать в опросах
Вы не можете прикреплять файлы к сообщениям
Вы не можете скачивать файлы

[  Время выполнения: 0,039 сек  |  MySQL: 0,004 сек (9%) · 3 запр.  |  GZIP выкл  |  Память: 422,29 KB / 1,74 MB / 1,34 MB  |  Лимит: 10 9 10  ]